<?xml version="1.0" encoding="UTF-8"?>
<!DOCTYPE svg  PUBLIC '-//W3C//DTD SVG 1.1//EN'  'http://www.w3.org/Graphics/SVG/1.1/DTD/svg11.dtd'>
<svg version="1.1" xmlns="http://www.w3.org/2000/svg">
<defs>
<font id="Iconic-Heavy" horiz-adv-x="0">
<font-face font-family="Iconic Heavy" font-weight="850" ascent="1638" bbox="-805 -468 1701 1821" cap-height="1323" descent="-410" panose-1="2 15 5 6 2 2 0 0 0 4" underline-position="-154" underline-thickness="102" unicode-range="U+0020-2083" units-per-em="2048" x-height="989"/>
<missing-glyph/>
<glyph glyph-name="space" horiz-adv-x="461" unicode=" "/>
<glyph d="M200 572.5q-50 50.5 -50 149.5v399q0 100 51 151t149 51t149 -51t51 -151v-399q0 -99 -51.5 -149.5t-150.5 -50.5q-98 0 -148 50.5zM240.5 18q-50.5 30 -81 81t-30.5 110q0 58 30.5 108.5t81 80.5t109.5 30q58 0 108.5 -30t80.5 -80.5t30 -108.5q0 -59 -30 -110t-80 -81 t-109 -30t-109.5 30z" glyph-name="exclam" horiz-adv-x="698" unicode="!"/>
<glyph d="M476 889q0 -100 -47 -150.5t-140 -50.5t-140.5 50.5t-47.5 150.5v226q1 97 48 146.5t140 49.5t140 -49.5t47 -146.5v-226zM976 889q0 -100 -47 -150.5t-140 -50.5q-188 0 -188 201v226q0 97 47.5 146.5t140.5 49.5q92 0 139.5 -49.5t47.5 -146.5v-226z" glyph-name="quotedbl" horiz-adv-x="1077" unicode='"'/>
<glyph d="M1258 684q-42 -53 -123 -56q101 -42 101 -187q0 -96 -44.5 -146t-129.5 -50h-33l-14 -84q-14 -85 -63.5 -129t-130.5 -44q-50 0 -97.5 20.5t-79 65t-31.5 112.5q0 25 4 48l2 11h-40l-14 -84q-13 -85 -63 -129t-131 -44q-50 0 -97.5 20.5t-79 65t-31.5 112.5q0 25 4 48 l3 16q-70 14 -105.5 65t-35.5 139q0 85 42 132.5t124 56.5q-102 38 -102 172q0 105 50.5 159t147.5 54h9l24 145q7 39 35.5 73.5t71 55t87.5 20.5q93 0 146.5 -55.5t53.5 -155.5q0 -32 -6 -68l-2 -15h40l24 145q6 39 35 73.5t71 55t87 20.5q94 0 147.5 -55.5t53.5 -155.5 q0 -32 -6 -68l-3 -20q141 -26 141 -188q0 -98 -42 -151z" glyph-name="numbersign" horiz-adv-x="1356" unicode="#"/>
<glyph d="M947.5 226q-37.5 -78 -105 -134.5t-156.5 -85.5v-61q0 -83 -41.5 -125t-123.5 -42q-85 0 -128.5 42.5t-43.5 124.5v54q-97 25 -197 87q-49 30 -71.5 72t-22.5 90q0 55 26 107.5t67 85.5t83 33q29 0 53.5 -7.5t72.5 -33.5q49 -27 93.5 -40t95.5 -13q26 0 41 10.5t15 24.5 q0 17 -41.5 41.5t-142.5 67.5q-123 52 -195 97t-113.5 112.5t-41.5 170.5q0 145 75.5 248t202.5 148v60q0 82 43.5 124.5t127.5 42.5q82 0 124 -42.5t42 -124.5v-46q111 -27 222 -106q34 -25 50.5 -61t16.5 -77q0 -53 -24.5 -103.5t-66 -82.5t-88.5 -32q-29 0 -69 14.5 t-69 30.5q-23 13 -70.5 21t-81.5 8q-25 0 -40 -12t-15 -26q0 -16 24.5 -30.5t85.5 -41.5l68 -30l43 -20q113 -53 174 -92t100 -106t39 -174q0 -90 -37.5 -168z" glyph-name="dollar" horiz-adv-x="1032" unicode="$"/>
<glyph d="M74 1022q0 86 38 156.5t103.5 111t145.5 40.5q82 0 148.5 -40.5t104.5 -111t38 -156.5v-176q0 -85 -38 -155t-104.5 -110t-148.5 -40q-80 0 -146 40t-103.5 110t-37.5 155v176zM308 857q0 -35 10.5 -58.5t42.5 -23.5q36 0 47 24t11 58v156q0 38 -12.5 60.5t-45.5 22.5 q-28 0 -40.5 -21t-12.5 -62v-156zM690 105q-28 -63 -58 -90.5t-78 -27.5q-77 0 -121.5 37t-44.5 99q0 41 23 92l461 995q22 46 58.5 72.5t84.5 27.5q79 0 117 -34.5t38 -93.5q0 -54 -29 -120zM930 438q0 86 38 156.5t103.5 111t145.5 40.5q82 0 148.5 -40.5t104.5 -111 t38 -156.5v-176q0 -85 -38 -155t-104.5 -110t-148.5 -40q-80 0 -146 40t-103.5 110t-37.5 155v176zM1164 273q0 -35 10.5 -58.5t42.5 -23.5q36 0 47 24t11 58v156q0 38 -12.5 60.5t-45.5 22.5q-28 0 -40.5 -21t-12.5 -62v-156z" glyph-name="percent" horiz-adv-x="1567" unicode="%"/>
<glyph d="M551 1322h-6h-5h11zM1284 354.5q32 -21.5 49 -56.5t17 -75q0 -47 -23.5 -90t-69.5 -70q-52 -31 -83 -46.5t-77 -26.5t-107 -11q-77 0 -139.5 23t-108.5 64q-94 -63 -209 -66q-200 3 -324 93.5t-124 314.5q0 67 29.5 136t83.5 121q-57 46 -85 107.5t-28 144.5 q0 402 460 405q184 -2 300 -77q124 -83 124 -188q0 -43 -22.5 -81t-62 -60.5t-87.5 -22.5q-38 0 -74 14l-28 12q-30 12 -49.5 17t-52.5 5h-14q-27 0 -58.5 -13t-31.5 -37q0 -17 10.5 -28.5t35.5 -11.5l414 3q111 0 166 -37t55 -121q0 -87 -45 -131.5t-132 -44.5h15v-156 q0 -11 6 -15t26 -4q47 0 75 9l19 6q21 8 38 12t37 4q43 0 75 -21.5zM564 392q49 0 69 7v91h-69q-42 0 -58.5 -13.5t-16.5 -33.5q0 -25 13.5 -38t43.5 -13h18zM528 0h5h15h-20z" glyph-name="ampersand" horiz-adv-x="1387" unicode="&amp;"/>
<glyph d="M477 889q0 -98 -47.5 -148.5t-140.5 -50.5t-140.5 50.5t-47.5 148.5v226q0 98 47.5 148t140.5 50t140.5 -50t47.5 -148v-226z" glyph-name="quotesingle" horiz-adv-x="578" unicode="'"/>
<glyph d="M576.5 278.5q36.5 -131.5 93.5 -208.5q41 -48 57 -85.5t16 -81.5q0 -33 -24.5 -75.5t-70 -73t-104.5 -30.5q-44 0 -94.5 14.5t-104.5 67.5q-55 58 -101.5 184.5t-75.5 277.5t-34 277q5 126 34 276t77 277.5t106 188.5q53 51 99 70.5t82 19.5q65 0 113 -29.5t73 -70.5 t25 -75q0 -84 -74 -170q-56 -79 -92.5 -213t-42.5 -272q6 -137 42.5 -268.5zM133 592q0 -31 1 -47q-1 -16 -1 -47v94z" glyph-name="parenleft" horiz-adv-x="820" unicode="("/>
<glyph d="M370 1357.5q46 -19.5 99 -70.5q58 -61 106 -188.5t77 -277.5t34 -276q-5 -126 -34 -277t-75.5 -277.5t-101.5 -184.5q-54 -53 -104.5 -67.5t-94.5 -14.5q-59 0 -104.5 30.5t-70 73t-24.5 75.5q0 44 16 81.5t57 85.5q57 77 93.5 208.5t42.5 268.5q-6 138 -42.5 272 t-92.5 213q-74 86 -74 170q0 34 25 75t73 70.5t113 29.5q36 0 82 -19.5zM687 498q0 31 -1 47q1 16 1 47v-94z" glyph-name="parenright" horiz-adv-x="820" unicode=")"/>
<glyph d="M318 787q0 34 25 104q-33 -49 -53 -66q-58 -43 -102 -43q-49 0 -86 52q-32 46 -32 84q0 63 86 107q33 14 97 23q-49 4 -81 13q-102 44 -102 113q0 40 34 87q38 51 86 51t113 -50q13 -13 41 -55q-23 60 -23 98q0 130 119 130q111 0 111 -122l-1 -20q-1 -25 -26 -86 q33 49 58 66q53 36 95 36q52 0 87 -50q31 -44 31 -82q0 -64 -92 -109q-33 -13 -92 -20q67 -9 99 -25q84 -45 84 -107q0 -40 -31 -84q-37 -46 -83 -46q-45 0 -100 39q-19 14 -56 65q21 -48 26 -81q1 -9 1 -26q0 -127 -115 -127q-117 0 -118 131z" glyph-name="asterisk" horiz-adv-x="866" unicode="*"/>
<glyph d="M828.5 630q50.5 -48 50.5 -143q0 -91 -50.5 -137.5t-149.5 -46.5h-42v-43q0 -98 -47 -148.5t-139 -50.5q-93 0 -140.5 50.5t-47.5 148.5v43h-41q-99 0 -149.5 47t-50.5 139q0 93 50.5 141t149.5 48h41v40q0 99 47.5 149.5t140.5 50.5q92 0 139 -50.5t47 -149.5v-40h42 q99 0 149.5 -48z" glyph-name="plus" horiz-adv-x="900" unicode="+"/>
<glyph d="M150.5 -267.5q-35.5 23.5 -53 62t-17.5 83.5q0 26 6 50l41 217q15 64 71 103.5t123 41.5q48 0 93.5 -26.5t74 -72t28.5 -97.5q0 -43 -18 -80l-97 -183q-58 -122 -166 -122q-50 0 -85.5 23.5z" glyph-name="comma" horiz-adv-x="611" unicode=","/>
<glyph d="M113 331q-51 47 -51 138q0 94 51 142t151 48h325q99 0 150.5 -48t51.5 -142q0 -91 -51.5 -138t-150.5 -47h-325q-100 0 -151 47z" glyph-name="hyphen" horiz-adv-x="862" unicode="-"/>
<glyph d="M176.5 18q-50.5 30 -81 81t-30.5 110q0 58 30.5 108.5t81 80.5t109.5 30q58 0 108.5 -30t80 -80t29.5 -109t-29.5 -110t-79.5 -81t-109 -30t-109.5 30z" glyph-name="period" horiz-adv-x="580" unicode="."/>
<glyph d="M430 140q-19 -62 -75.5 -101t-122.5 -39q-53 0 -101 22t-78 62.5t-30 92.5q0 30 10 60l291 932q23 74 76.5 113.5t118.5 39.5q58 0 108 -22.5t80 -65t30 -99.5q0 -35 -12 -74z" glyph-name="slash" horiz-adv-x="761" unicode="/"/>
<glyph d="M74 796q0 150 65.5 272.5t180 193t254.5 70.5q142 0 257.5 -70.5t181.5 -193t66 -272.5v-287q0 -149 -66 -270.5t-181.5 -191t-257.5 -69.5q-141 0 -255 69.5t-179.5 191t-65.5 270.5v287zM496 530q0 -69 17.5 -99t60.5 -30q46 0 65 30t19 99v250q0 68 -19 98.5t-65 30.5 q-43 0 -60.5 -30.5t-17.5 -98.5v-250z" glyph-name="zero" horiz-adv-x="1153" unicode="0"/>
<glyph d="M633 1276.5q50 -46.5 50 -129.5v-947q0 -105 -52 -159t-153 -54q-106 0 -161 54t-55 159v581q-31 -9 -40 -9q-59 0 -104.5 28.5t-70.5 74t-25 96.5t27.5 104t86.5 88l178 106q48 29 82.5 41.5t81.5 12.5q105 0 155 -46.5z" glyph-name="one" horiz-adv-x="812" unicode="1"/>
<glyph d="M166 29q-45 29 -70.5 78.5t-25.5 109.5q0 98 50 151l353 371q42 44 69 85.5t27 63.5q0 1 0.5 11.5t-15 18.5t-46.5 8q-17 0 -29.5 -7t-34.5 -24q-8 -6 -31 -25.5t-51.5 -29.5t-66.5 -10q-55 0 -103 19.5t-77.5 57.5t-29.5 91q0 58 19.5 104t58.5 85q64 59 154.5 102 t210.5 43q126 0 222.5 -49.5t150 -136t53.5 -195.5v-68q0 -88 -52 -186t-120 -169l-105 -108h146q106 0 160 -52.5t54 -155.5q0 -104 -54 -158t-160 -54h-554q-58 0 -103 29z" glyph-name="two" horiz-adv-x="1075" unicode="2"/>
<glyph d="M941.5 709.5q74.5 -95.5 74.5 -263.5v-5q0 -139 -65 -244t-176.5 -162t-248.5 -57q-64 0 -118.5 10.5t-112.5 33.5q-107 54 -152.5 108.5t-45.5 139.5q0 46 24 94.5t68 81t101 32.5q28 0 55.5 -8.5t80.5 -39.5q87 -41 123 -41q21 0 33.5 12.5t13.5 46.5q-1 23 -15 40.5 t-43 17.5h-142q-56 0 -99 24t-66.5 63.5t-23.5 84.5q0 85 61 125l151 101h-113q-105 0 -158.5 49.5t-53.5 144.5q0 105 53.5 159t158.5 54h471q106 0 148.5 -49t42.5 -145q0 -112 -102 -198l-141 -97q142 -17 216.5 -112.5z" glyph-name="three" horiz-adv-x="1078" unicode="3"/>
<glyph d="M1052 289.5q-39 -52.5 -116 -64.5v-36q0 -102 -46.5 -145.5t-149.5 -43.5q-108 0 -157 43.5t-49 145.5v32h-290q-97 0 -155 59.5t-58 176.5q0 29 10.5 62t12.5 40l188 626q18 62 73.5 97.5t127.5 35.5q102 0 158 -44t56 -122q0 -57 -27 -121l-162 -389h66q3 99 53.5 149 t152.5 50q191 0 196 -203q77 -12 116 -64t39 -141q0 -91 -39 -143.5z" glyph-name="four" horiz-adv-x="1095" unicode="4"/>
<glyph d="M372.5 2.5q-84.5 23.5 -158.5 66.5q-120 71 -120 199q0 46 30.5 90t80 72t102.5 28q40 0 78 -18q60 -29 96.5 -40t68.5 -11q46 0 72 20t26 55v5q0 38 -25.5 59.5t-69.5 21.5q-32 0 -62.5 -4t-73.5 -11q-64 -11 -96 -11q-52 0 -98 29.5t-74 79.5t-28 107v364 q-2 102 53.5 154t166.5 52h453q104 0 156 -50t52 -156q0 -93 -53.5 -143t-154.5 -51l-252 -1v-85q18 15 81.5 22.5t106.5 7.5q59 0 139 -42.5t139.5 -128.5t59.5 -210v-20q0 -155 -66.5 -262t-179 -159.5t-248.5 -52.5q-117 0 -201.5 23.5z" glyph-name="five" horiz-adv-x="1114" unicode="5"/>
<glyph d="M812 858.5q105 -56.5 165.5 -151.5t60.5 -213v-96q0 -115 -63 -211.5t-173 -152.5t-245 -56q-136 0 -246 56t-173 152.5t-63 211.5v21v17l-1 -1l1 333q0 208 71.5 338.5t188 188t259.5 57.5q151 0 219 -24q57 -20 86.5 -48.5t40 -66.5t10.5 -95q0 -71 -46 -124.5 t-121 -66.5q-9 -2 -24 -2q-17 0 -41 7q-48 13 -106 13q-40 0 -66.5 -5t-43.5 -24q35 7 77 5q128 -6 233 -62.5zM599.5 409.5q17.5 19.5 18.5 43.5q-1 22 -18.5 39t-42.5 17q-24 0 -41.5 -18.5t-19.5 -43.5q2 -23 19.5 -40t41.5 -17q25 0 42.5 19.5z" glyph-name="six" horiz-adv-x="1063" unicode="6"/>
<glyph d="M162 41q-57 44 -57 125q0 69 40 156l288 568h-183q-107 0 -162.5 53t-55.5 155q0 105 55.5 159t162.5 54h554q57 0 100.5 -28.5t67 -75t23.5 -99.5q0 -38 -6.5 -63.5t-21.5 -55.5l-455 -858q-33 -66 -81 -100t-103 -34q-109 0 -166 44z" glyph-name="seven" horiz-adv-x="1001" unicode="7"/>
<glyph d="M936 184q-65 -91 -176 -143.5t-242 -52.5q-128 0 -239 53t-176 143t-65 195v37q0 103 42 180t105 132q-74 79 -74 203v21q0 116 52.5 202t144 132t204.5 46q114 0 205.5 -45.5t144.5 -130t53 -198.5v-26q0 -116 -67 -194q66 -52 109.5 -131.5t43.5 -190.5v-32 q0 -109 -65 -200zM448 950q1 -19 19 -31t44 -12q28 0 46 12.5t18 32.5v-4q1 32 -16.5 47t-47.5 15q-62 0 -63 -60zM448 950v3v-3zM512 539q-33 0 -57 -19.5t-24 -57.5v3q-1 -41 25 -59.5t63 -18.5q36 0 58.5 18t22.5 58v-1q1 77 -88 77z" glyph-name="eight" horiz-adv-x="1039" unicode="8"/>
<glyph d="M973 875l-1 -327q0 -205 -70.5 -333.5t-185 -185t-254.5 -56.5q-148 0 -216 24q-56 19 -85 47.5t-39 65.5t-10 93q0 70 45 123t119 65q9 2 24 2q17 0 41 -7q26 -6 47 -9t56 -3q39 0 64.5 4.5t42.5 23.5q-32 -7 -74 -5q-126 6 -229.5 61.5t-163 149t-59.5 209.5v95 q0 113 62 208t170 150t241 55q134 0 242.5 -55t170 -150t61.5 -208v-21v-17zM539 820q17 18 20 43q-3 22 -20 39t-41 17t-41.5 -19t-18.5 -42q1 -22 18.5 -39t41.5 -17t41 18z" glyph-name="nine" horiz-adv-x="1047" unicode="9"/>
<glyph d="M176.5 18q-50.5 30 -81 81t-30.5 110q0 58 30.5 108.5t81 80.5t109.5 30q58 0 108.5 -30t80 -80t29.5 -109t-29.5 -110t-79.5 -81t-109 -30t-109.5 30zM176.5 594q-50.5 30 -81 81t-30.5 110q0 58 30.5 108.5t81 80.5t109.5 30q58 0 108.5 -30t80 -80t29.5 -109 t-29.5 -110t-79.5 -81t-109 -30t-109.5 30z" glyph-name="colon" horiz-adv-x="580" unicode=":"/>
<glyph d="M135.5 -267.5q-35.5 23.5 -53 62t-17.5 83.5q0 26 6 50l41 217q15 64 71 103.5t123 41.5q48 0 93.5 -26.5t74 -72t28.5 -97.5q0 -43 -18 -80l-97 -183q-58 -122 -166 -122q-50 0 -85.5 23.5zM221.5 594q-50.5 30 -81 81t-30.5 110q0 58 30.5 108.5t81 80.5t109.5 30 q58 0 108.5 -30t80 -80t29.5 -109t-29.5 -110t-79.5 -81t-109 -30t-109.5 30z" glyph-name="semicolon" horiz-adv-x="625" unicode=";"/>
<glyph d="M815 227q0 -43 -25 -93q-49 -96 -125 -96q-38 0 -88 28l-441 254q-110 63 -110 143q0 100 86 150l461 272q44 26 83 26q76 0 132 -91q28 -50 28 -94q0 -76 -90 -124l-255 -130l249 -120q95 -42 95 -125z" glyph-name="less" horiz-adv-x="866" unicode="&lt;"/>
<glyph d="M700 928q99 0 150.5 -50.5t51.5 -147.5q0 -87 -51.5 -131.5t-150.5 -44.5h-437q-99 0 -149.5 45t-50.5 133q0 97 50.5 146.5t149.5 49.5h437zM700 426q99 0 150.5 -47t51.5 -139q0 -93 -51.5 -140.5t-150.5 -47.5h-437q-99 0 -149.5 48t-50.5 143q0 91 50.5 137t149.5 46 h437z" glyph-name="equal" horiz-adv-x="949" unicode="="/>
<glyph d="M840 463q0 -80 -110 -143l-441 -254q-50 -28 -88 -28q-76 0 -125 96q-25 50 -25 93q0 83 95 125l249 120l-255 130q-90 48 -90 124q0 44 28 94q56 91 132 91q39 0 83 -26l461 -272q86 -50 86 -150z" glyph-name="greater" horiz-adv-x="866" unicode="&gt;"/>
<glyph d="M692.5 1283q93.5 -48 148.5 -131.5t55 -184.5v-13q0 -108 -44 -174.5t-137 -123.5q-117 -75 -164 -126q-27 -43 -56.5 -70t-75.5 -36q49 -10 89 -41.5t63 -77t23 -96.5q0 -59 -30 -110t-80 -81t-108 -30q-59 0 -109.5 30t-81 81t-30.5 110q0 51 23.5 96.5t64 77 t90.5 41.5q-67 11 -104 51t-37 104q-2 70 33 126t87 96.5t139 95.5l20 13q22 9 26 13t2 6t-2 4v3q0 -6 -8 -6l-18 1q-8 0 -18 1t-23 1q-43 0 -78 -24l-23 -19q-36 -31 -62.5 -46.5t-61.5 -15.5q-52 0 -94 24t-65.5 66.5t-23.5 97.5q0 38 14 78t46 71q71 67 177 116.5 t230 49.5q110 0 203.5 -48z" glyph-name="question" horiz-adv-x="932" unicode="?"/>
<glyph d="M996 1253q133 -77 206.5 -198.5t73.5 -248.5v-556q0 -83 -37.5 -125.5t-111.5 -42.5q-63 0 -98.5 23t-39.5 69v-5q-12 -36 -48.5 -64.5t-93.5 -28.5q-74 0 -147 51.5t-119.5 137.5t-46.5 183v41q0 96 48 180t130.5 135t180.5 54q-24 40 -66.5 54.5t-116.5 14.5 q-84 0 -143 -49.5t-59 -166.5v-513q0 -66 51.5 -101t121.5 -35q100 0 151 -49.5t51 -144.5q0 -103 -56 -156t-165 -53q-153 0 -279.5 76.5t-199 197.5t-72.5 245v628q0 128 72.5 249.5t205.5 198t303 76.5q171 0 304 -77zM922.5 421.5q8.5 11.5 8.5 18.5v54q0 8 -8 19 t-18 11t-18 -11t-8 -19v-54q0 -7 8.5 -18.5t17.5 -11.5t17.5 11.5z" glyph-name="at" horiz-adv-x="1361" unicode="@"/>
<glyph d="M1149 181q0 -54 -24.5 -98t-74.5 -70t-122 -26q-64 0 -115 28t-67 86l-17 69h-295l-17 -69q-16 -58 -68.5 -86t-117.5 -28q-64 0 -113.5 25t-76.5 69.5t-27 100.5q0 40 17 88l351 938q22 58 74 86.5t127 28.5q73 0 125.5 -28t72.5 -85l352 -940q16 -44 16 -89zM650 489 l-67 270l-68 -270h135z" glyph-name="A" horiz-adv-x="1163" unicode="A"/>
<glyph d="M1060 592.5q47 -76.5 47 -177.5q0 -128 -54.5 -221.5t-157 -143.5t-241.5 -50h-334q-94 0 -142.5 47.5t-48.5 140.5v934q0 93 48.5 140.5t142.5 47.5h284q134 0 233 -44.5t151.5 -127.5t52.5 -196q0 -67 -30 -127t-84 -105q86 -41 133 -117.5zM530 827h68q29 0 45 16.5 t16 44.5q0 29 -15 45.5t-40 16.5h-74v-123zM700 379.5q26 20.5 26 56.5q0 34 -26 53.5t-71 19.5h-99v-150h99q45 0 71 20.5z" glyph-name="B" horiz-adv-x="1160" unicode="B"/>
<glyph d="M804.5 12q-84.5 -34 -206.5 -34q-161 0 -279.5 63t-181.5 180.5t-63 277.5v312q0 160 63 277.5t181.5 180.5t279.5 63q101 0 185.5 -25.5t173.5 -92.5q45 -33 66 -74.5t21 -86.5q0 -54 -28.5 -103.5t-74.5 -80t-97 -30.5q-38 0 -69 10.5t-68 32.5q-22 13 -47.5 20 t-67.5 7q-44 0 -69.5 -30t-25.5 -83v-278q0 -55 27 -86t74 -31q38 0 63.5 6t50.5 19q46 25 71 35t61 10q51 0 97 -30.5t74 -80t28 -103.5q0 -44 -21 -85t-64 -74q-69 -52 -153.5 -86z" glyph-name="C" horiz-adv-x="1087" unicode="C"/>
<glyph d="M876 1247q129 -63 198 -181.5t69 -280.5v-275q0 -155 -67.5 -269t-193.5 -176.5t-298 -64.5h-13h-5h-226h-1q-104 0 -157 52t-53 155v895q0 103 53 155.5t157 52.5h1h230h1q176 0 305 -63zM721 783q0 48 -40 76t-110 28h-1h-19v-464h19h1q70 0 110 25t40 69v266z" glyph-name="D" horiz-adv-x="1217" unicode="D"/>
<glyph d="M302 0q-85 0 -129 46.5t-44 137.5v936q0 93 47.5 141.5t140.5 48.5h490q93 0 141 -48.5t48 -141.5q0 -94 -48 -143t-141 -49h-266v-85h162q94 0 142 -45.5t48 -134.5q0 -88 -48 -132.5t-142 -44.5h-162v-104h266q93 0 141 -49.5t48 -146.5q0 -92 -48 -139t-141 -47h-505z " glyph-name="E" horiz-adv-x="1052" unicode="E"/>
<glyph d="M821 1310q102 0 154.5 -53.5t52.5 -156.5q0 -104 -52.5 -158.5t-154.5 -54.5h-270v-147h192q103 0 156.5 -51.5t53.5 -151.5q0 -95 -53.5 -144t-156.5 -49h-192v-150q0 -102 -54 -154.5t-159 -52.5q-103 0 -156 52.5t-53 154.5v915q3 100 61 150.5t169 50.5h462z" glyph-name="F" horiz-adv-x="1054" unicode="F"/>
<glyph d="M1046 736.5q43 -47.5 43 -142.5v-230q0 -87 -34.5 -161t-84.5 -114q-69 -54 -153 -82.5t-215 -28.5q-162 0 -281 62t-183 177.5t-64 273.5v320q0 160 64 277.5t183.5 180.5t282.5 63q104 0 181 -28t153 -78q54 -37 79.5 -81.5t25.5 -91.5q0 -54 -29.5 -103.5t-76 -80 t-93.5 -30.5q-66 0 -151 47q-19 11 -52.5 17t-73.5 6q-33 0 -52 -28.5t-19 -78.5v-296q0 -56 24 -88t65 -32q93 0 123 16v43h-6q-57 0 -90 45t-33 123q0 88 47 129.5t141 41.5h143q93 0 136 -47.5z" glyph-name="G" horiz-adv-x="1179" unicode="G"/>
<glyph d="M1173 1271q52 -52 52 -154v-923q0 -103 -53 -155t-157 -52t-158 52t-54 155v246h-252v-246q0 -103 -54 -155t-158 -52t-157 52t-53 155v923q0 101 53.5 153.5t156.5 52.5q104 0 158 -52.5t54 -153.5v-254h252v254q0 101 54.5 153.5t160.5 52.5q103 0 155 -52z" glyph-name="H" horiz-adv-x="1354" unicode="H"/>
<glyph d="M551 194q0 -103 -54 -155t-158 -52t-157 52t-53 155v923q0 101 53.5 153.5t156.5 52.5q104 0 158 -52.5t54 -153.5v-923z" glyph-name="I" horiz-adv-x="680" unicode="I"/>
<glyph d="M1064 1113v-12v-621q0 -154 -62.5 -267.5t-179 -174t-275.5 -60.5q-151 0 -261.5 60.5t-170 174t-59.5 267.5v35q0 100 53.5 151.5t157.5 51.5q98 0 148 -51.5t50 -151.5v-1q0 -53 25 -83t68 -30q39 0 61.5 30.5t22.5 82.5v386h-230q-108 0 -164 51t-56 150q0 103 56 156 t164 53h446q101 0 153.5 -46.5t52.5 -137.5v-13z" glyph-name="J" horiz-adv-x="1156" unicode="J"/>
<glyph d="M1198 284q33 -56 33 -112q0 -52 -27 -94t-74 -66.5t-105 -24.5q-74 0 -121 28t-85 93l-142 301l-84 -94q-19 -19 -42 -33v-101q0 -103 -53 -155t-157 -52t-158 52t-54 155v937q0 102 54 154t158 52t157 -52t53 -154v-227l344 387q30 34 61 46t73 12q70 0 120.5 -27.5 t76.5 -73.5t26 -100q0 -43 -16.5 -85t-48.5 -77l-210 -233z" glyph-name="K" horiz-adv-x="1276" unicode="K"/>
<glyph d="M1013.5 366q52.5 -54 52.5 -160q0 -206 -208 -206h-519q-103 0 -156.5 62t-53.5 182v875q0 101 53 153t157 52t158 -52t54 -153v-696l307 -2q103 -1 155.5 -55z" glyph-name="L" horiz-adv-x="1086" unicode="L"/>
<glyph d="M1327 1297q48 -22 76 -63.5t28 -98.5v-947q0 -103 -53 -155.5t-158 -52.5q-106 0 -160.5 53t-50.5 155l15 420l-91 -105q-42 -49 -75.5 -71t-77.5 -22q-40 0 -75.5 22.5t-77.5 70.5l-91 106l15 -421q4 -102 -50.5 -155t-160.5 -53q-104 0 -157.5 52.5t-53.5 155.5v947 q0 97 60.5 140.5t154.5 43.5q98 0 161 -81l275 -356l274 354q29 38 59 56.5t54 22.5t53 4q59 0 107 -22z" glyph-name="M" horiz-adv-x="1560" unicode="M"/>
<glyph d="M1178.5 1266q52.5 -54 52.5 -158v-951q0 -86 -51 -131.5t-131 -45.5q-122 0 -185 85l-313 426v-298q0 -104 -54 -158.5t-158 -54.5q-103 0 -156.5 54t-53.5 159v933q0 55 26.5 99.5t73.5 69.5t105 25q59 0 102 -20t75 -63l298 -399v270q0 105 54.5 158.5t160.5 53.5 q102 0 154.5 -54z" glyph-name="N" horiz-adv-x="1360" unicode="N"/>
<glyph d="M74 825q0 156 64 270.5t183 175.5t282 61q164 0 284 -61t184.5 -175.5t64.5 -270.5v-345q0 -154 -64.5 -267.5t-184.5 -174t-284 -60.5q-163 0 -282 60.5t-183 174t-64 267.5v345zM497 500q0 -46 28.5 -72.5t77.5 -26.5q52 0 81.5 26.5t29.5 72.5v309q0 47 -29.5 73.5 t-81.5 26.5q-49 0 -77.5 -26.5t-28.5 -73.5v-309z" glyph-name="O" horiz-adv-x="1210" unicode="O"/>
<glyph d="M626 1310q114 0 226.5 -60t186 -174t73.5 -268v-48q0 -145 -73 -255.5t-185.5 -169.5t-225.5 -59h-77v-73q0 -216 -212 -216q-104 0 -157 52t-53 155v906q0 103 53.5 156.5t156.5 53.5h287zM551 887v-204h48q27 0 45.5 4.5t32 23t13.5 58.5v41q0 37 -29 57t-64 20h-46z " glyph-name="P" horiz-adv-x="1138" unicode="P"/>
<glyph d="M1044.5 170q-91.5 -125 -257.5 -169q15 -40 54 -40q33 -1 48 1t36 7l29 7q24 6 44 6q60 0 94 -47t34 -118q0 -64 -35.5 -110t-80.5 -62q-47 -17 -88.5 -21.5t-104.5 -4.5q-112 0 -200.5 46.5t-146.5 134t-79 210.5q-151 50 -234 171.5t-83 298.5v345q0 156 64 270.5 t183 175.5t282 61q164 0 284 -61t184.5 -175.5t64.5 -270.5v-345q0 -185 -91.5 -310zM497 500q0 -46 28.5 -72.5t77.5 -26.5q52 0 81.5 26.5t29.5 72.5v309q0 47 -29.5 73.5t-81.5 26.5q-49 0 -77.5 -26.5t-28.5 -73.5v-309z" glyph-name="Q" horiz-adv-x="1210" unicode="Q"/>
<glyph d="M1076 689.5q-35 -75.5 -97 -135.5q43 -37 70.5 -82t34.5 -93l20 -134q5 -35 5 -60q0 -102 -57.5 -156.5t-162.5 -54.5q-83 0 -133 43t-65 127l-25 169q-2 24 -22.5 43t-70.5 19h-3h-19v-181q0 -103 -54 -155t-158 -52t-157 52t-53 155v906q0 103 53.5 156.5t156.5 53.5 h252q136 0 254.5 -48t192.5 -151t74 -258q-1 -88 -36 -163.5zM637 756q28 0 46.5 20t18.5 49v18q0 24 -19.5 40t-47.5 16h-96v-143h98zM1112 851v2v2v-4z" glyph-name="R" horiz-adv-x="1182" unicode="R"/>
<glyph d="M133 1132q62 97 168 148t235 51q101 0 191 -28.5t181 -94.5q34 -25 50.5 -61t16.5 -77q0 -53 -24.5 -103.5t-66 -82.5t-88.5 -32q-29 0 -69 14.5t-69 30.5q-23 13 -70.5 21t-81.5 8q-25 0 -40 -12t-15 -26q0 -16 24.5 -30.5t85.5 -41.5l68 -30l43 -20q113 -53 174 -92 t100 -106t39 -174q0 -118 -62.5 -212.5t-171 -148.5t-242.5 -54q-91 0 -176 24t-181 83q-49 30 -71.5 72t-22.5 90q0 55 26 107.5t67 85.5t83 33q29 0 53.5 -7.5t72.5 -33.5q49 -27 93.5 -40t95.5 -13q26 0 41 10.5t15 24.5q0 17 -41.5 41.5t-142.5 67.5q-123 52 -195 97 t-113.5 112.5t-41.5 170.5q0 131 62 228z" glyph-name="S" horiz-adv-x="1032" unicode="S"/>
<glyph d="M1009 1256.5q52 -53.5 52 -158.5q0 -104 -52 -157.5t-155 -53.5h-110v-688q0 -104 -53.5 -158t-157.5 -54q-105 0 -158.5 52.5t-53.5 153.5v694h-113q-101 0 -153 54.5t-52 160.5q0 103 52 155.5t153 52.5h646q103 0 155 -53.5z" glyph-name="T" horiz-adv-x="1064" unicode="T"/>
<glyph d="M331.5 38.5q-115.5 60.5 -177.5 174t-62 267.5v634q0 103 53.5 156t157.5 53q105 0 158 -53t53 -156v-614q0 -46 27 -72.5t74 -26.5q43 0 68 26.5t25 72.5v614q0 103 54 156t158 53t157 -53t53 -156v-634q0 -154 -63 -267.5t-181.5 -174t-280.5 -60.5q-158 0 -273.5 60.5 z" glyph-name="U" horiz-adv-x="1222" unicode="U"/>
<glyph d="M995.5 1297q50.5 -27 81 -73.5t30.5 -103.5q0 -35 -13 -71l-338 -927q-28 -80 -78.5 -112t-123.5 -32q-79 0 -128 35t-76 109l-335 928q-14 40 -14 76q0 57 30 102t79.5 70.5t105.5 25.5q63 0 116.5 -34.5t70.5 -92.5l151 -522l150 522q17 57 69.5 92t116.5 35 q55 0 105.5 -27z" glyph-name="V" horiz-adv-x="1108" unicode="V"/>
<glyph d="M1482 1299.5q48 -24.5 76 -69.5t28 -104q0 -28 -8 -63l-199 -883q-26 -111 -82 -156.5t-148 -45.5q-87 0 -155.5 45t-93.5 151l-106 473l-107 -474q-25 -106 -94 -150.5t-156 -44.5q-92 0 -147.5 45.5t-81.5 157.5l-200 882q-7 29 -7 61q0 60 28 105.5t76 70t106 24.5 q70 0 128.5 -45.5t76.5 -144.5l52 -369l75 340q26 109 90 164t160 55q98 0 162 -54.5t89 -161.5l75 -344l52 370q18 99 76.5 144.5t128.5 45.5q58 0 106 -24.5z" glyph-name="W" horiz-adv-x="1587" unicode="W"/>
<glyph d="M1072 188q0 -56 -29 -102.5t-79 -73t-110 -26.5q-43 1 -81 20t-63 55l-153 217l-151 -217q-26 -36 -63.5 -55t-80.5 -20q-61 0 -111.5 27t-80 73.5t-29.5 103.5q0 70 45 138l227 336l-212 320q-49 69 -49 141q0 55 28.5 101t78 72.5t110.5 26.5q44 -2 82.5 -21t63.5 -54 l142 -203l142 203q26 35 65 54t83 21q62 0 110.5 -26.5t75.5 -72.5t27 -102q0 -71 -45 -141l-213 -322l223 -334q47 -68 47 -139z" glyph-name="X" horiz-adv-x="1113" unicode="X"/>
<glyph d="M1024 1294.5q47 -28.5 73.5 -76.5t26.5 -105q0 -69 -39 -133l-311 -487v-299q0 -103 -53.5 -155t-157.5 -52q-105 0 -158.5 52t-53.5 155v296l-312 490q-41 66 -41 135q0 57 26.5 104.5t73.5 75.5t106 28q51 0 97 -25.5t75 -78.5l186 -353l185 353q29 54 74 79t99 25 q57 0 104 -28.5z" glyph-name="Y" horiz-adv-x="1122" unicode="Y"/>
<glyph d="M1003.5 369q52.5 -54 52.5 -159q0 -104 -52.5 -157t-155.5 -53h-588q-55 0 -97 28t-64 76t-22 106q0 62 46 139l337 538h-178q-103 0 -156 54t-53 159q0 104 54.5 157t160.5 53h570q57 0 98 -29.5t62.5 -78.5t21.5 -106q0 -40 -13 -73t-33 -65l-353 -535h207 q103 0 155.5 -54z" glyph-name="Z" horiz-adv-x="1108" unicode="Z"/>
<glyph d="M710.5 62q51.5 -49 51.5 -144q0 -102 -51.5 -154.5t-150.5 -52.5h-225q-99 0 -150.5 52.5t-51.5 154.5v1253q0 101 51.5 153.5t150.5 52.5h222q100 0 151.5 -53.5t51.5 -157.5q0 -92 -51.5 -140.5t-151.5 -48.5h-24v-866h27q99 0 150.5 -49z" glyph-name="bracketleft" horiz-adv-x="809" unicode="["/>
<glyph d="M24 1135q0 57 30 99.5t80 65t108 22.5q65 0 118.5 -39.5t76.5 -113.5l291 -932q10 -30 10 -60q0 -52 -30 -92.5t-78 -62.5t-101 -22q-66 0 -122.5 39t-75.5 101l-295 921q-12 39 -12 74z" glyph-name="backslash" horiz-adv-x="761" unicode="\"/>
<glyph d="M276 111v866h-24q-100 0 -151.5 48.5t-51.5 140.5q0 104 51.5 157.5t151.5 53.5h222q99 0 150.5 -52.5t51.5 -153.5v-1253q0 -102 -51.5 -154.5t-150.5 -52.5h-225q-99 0 -150.5 52.5t-51.5 154.5q0 95 51.5 144t150.5 49h27z" glyph-name="bracketright" horiz-adv-x="809" unicode="]"/>
<glyph d="M739 910q0 -47 -24.5 -87t-66.5 -64t-91 -24q-42 0 -79 19.5t-60 56.5l-22 36l-25 -33q-24 -35 -59 -55.5t-76 -20.5q-49 0 -91.5 23.5t-67 63t-24.5 84.5q0 49 31 95l176 253q25 37 63 56.5t81 19.5q40 0 80 -16t66 -55l158 -252q31 -48 31 -100z" glyph-name="asciicircum" horiz-adv-x="763" unicode="^"/>
<glyph d="M1016 4q108 0 163.5 -47t55.5 -138q0 -94 -55.5 -142t-163.5 -48h-805q-104 0 -157.5 48t-53.5 142q0 91 53.5 138t157.5 47h805z" glyph-name="underscore" horiz-adv-x="1235" unicode="_"/>
<glyph d="M108 1301q0 45 25.5 88t66 69.5t83.5 26.5q30 0 52 -4.5t44.5 -23.5t42.5 -59l33 -91q18 -37 18 -76t-18 -72.5t-51 -53.5t-77 -20q-65 0 -111 50l-66 63q-42 43 -42 103z" glyph-name="grave" horiz-adv-x="510" unicode="`"/>
<glyph d="M746.5 955q98.5 -52 149 -145t50.5 -214v-393q0 -53 -10.5 -83t-40.5 -52t-92 -43q-67 -23 -157.5 -35t-166.5 -12q-207 0 -317.5 80.5t-110.5 227.5v10q0 133 98.5 205.5t286.5 72.5q83 0 138 -7q-7 78 -88 78q-38 0 -98 -10l-38 -8q-32 -9 -59 -9q-41 0 -82.5 19 t-69.5 58.5t-28 95.5q0 55 33.5 98.5t106.5 78.5q27 13 100.5 26t157.5 13q139 0 237.5 -52zM574 273v90q-41 10 -89 10q-57 0 -57 -52v-3q0 -21 12.5 -36.5t41.5 -15.5q57 0 92 7z" glyph-name="a" horiz-adv-x="1022" unicode="a"/>
<glyph d="M831 950q97 -61 147 -161.5t50 -216.5v-131q0 -136 -62.5 -241.5t-169 -163.5t-235.5 -58q-78 0 -167.5 12t-159.5 35q-61 21 -90.5 42.5t-40 52.5t-10.5 86v950q0 95 50 144.5t147 49.5t146.5 -49.5t49.5 -144.5v-108l-29 -65q23 13 71 20.5t72 7.5q134 0 231 -61z M634 569q0 39 -21.5 62.5t-53.5 23.5q-22 0 -73 -14v-291q32 -16 73 -16q31 0 53 25.5t22 64.5v145z" glyph-name="b" horiz-adv-x="1090" unicode="b"/>
<glyph d="M121 789.5q59 101.5 168.5 161.5t253.5 60q82 0 151.5 -20.5t114.5 -53.5q39 -29 57.5 -67t18.5 -81q0 -48 -21.5 -92.5t-57 -72t-74.5 -27.5q-39 1 -61 6t-55 18l-22 9q-39 15 -71 15q-27 0 -47 -25.5t-20 -61.5v-128q0 -37 20 -61.5t47 -24.5q32 0 71 15q9 4 33 14 t49 14.5t56 4.5q40 0 75 -27.5t56.5 -72t21.5 -92.5q0 -43 -18.5 -81t-57.5 -67q-48 -35 -111 -54.5t-171 -19.5q-136 0 -242 60t-164.5 161.5t-58.5 221.5v147q0 120 59 221.5z" glyph-name="c" horiz-adv-x="934" unicode="c"/>
<glyph d="M562 1003.5q48 -7.5 71 -20.5l-29 65v108q0 95 49.5 144.5t146.5 49.5t147 -49.5t50 -144.5v-950q0 -55 -10.5 -86t-40 -52.5t-90.5 -42.5q-70 -23 -159.5 -35t-167.5 -12q-129 0 -235.5 58t-169 163.5t-62.5 241.5v131q0 116 50 216.5t147 161.5t231 61q24 0 72 -7.5z M478 359.5q22 -25.5 53 -25.5q41 0 73 16v291q-51 14 -73 14q-32 0 -53.5 -23.5t-21.5 -62.5v-145q0 -39 22 -64.5z" glyph-name="d" horiz-adv-x="1090" unicode="d"/>
<glyph d="M750 943.5q103 -63.5 159 -167t56 -220.5v-50q0 -63 -37.5 -85.5t-121.5 -22.5h-385q10 -39 32.5 -65t61.5 -26q15 0 36.5 3t37.5 8q17 7 34 15q20 11 37 16.5t39 5.5q50 0 87.5 -25t57 -65t19.5 -84q0 -40 -16.5 -74.5t-48.5 -57.5q-102 -70 -285 -70q-133 0 -236 60 t-159 156.5t-56 201.5v179q0 117 55.5 215.5t158.5 157t237 58.5t237 -63.5zM444 665q-26 -27 -28 -67h195q-1 40 -28 67t-70 27t-69 -27z" glyph-name="e" horiz-adv-x="995" unicode="e"/>
<glyph d="M538.5 1031.5q-10.5 -9.5 -10.5 -22.5q0 -7 3 -13l7 -16h51q83 0 125.5 -40.5t42.5 -116.5q0 -71 -43.5 -115t-124.5 -44h-39v-522v-7v-137q0 -107 -41.5 -186.5t-125 -123.5t-204.5 -44q-29 0 -51.5 3.5t-59.5 12.5q-71 17 -112.5 55.5t-41.5 111.5q0 52 22 88.5t57 54 t74 17.5l15 -1q8 -1 22 -3t20 -2q13 0 23 10.5t10 38.5v105v7v522h15q-79 1 -121.5 45.5t-42.5 113.5q0 76 37 114t112 42q-12 45 -12 89q0 80 38.5 147t112.5 106.5t177 39.5q60 0 107 -7t97 -23q52 -17 82.5 -33t48.5 -46t18 -80q0 -47 -19.5 -82t-52 -53t-69.5 -18 q-21 0 -42 6q-9 3 -25 8t-26 6.5t-21 1.5q-22 0 -32.5 -9.5z" glyph-name="f" horiz-adv-x="772" unicode="f"/>
<glyph d="M945 907q21 -17 31 -46t10 -78v-695q0 -119 -48 -221t-140 -164t-218 -62q-85 0 -139 9q-76 12 -119.5 49.5t-43.5 109.5q0 83 44 127t124 44q15 0 23 -1q26 -2 61 -2q84 0 100 103q-73 -47 -175 -47q-97 0 -188 55t-148 152.5t-57 217.5v98q0 125 52 224.5t146.5 156.5 t217.5 57q118 0 217.5 -12t191.5 -45q37 -13 58 -30zM598 640q-13 5 -36.5 10t-39.5 5q-74 0 -74 -134v-52q0 -65 14 -99.5t61 -34.5q38 0 75 14v291z" glyph-name="g" horiz-adv-x="1069" unicode="g"/>
<glyph d="M824.5 953.5q97.5 -57.5 150.5 -158t53 -227.5v-382q0 -98 -50.5 -148.5t-150.5 -50.5q-96 0 -144.5 50.5t-48.5 148.5v386q0 33 -21.5 58t-53.5 25q-52 0 -73 -16v-453q0 -98 -48 -148.5t-142 -50.5q-100 0 -151.5 50.5t-51.5 148.5v970q0 95 50 144.5t147 49.5 t146.5 -49.5t49.5 -144.5v-112l-29 -72q33 17 71.5 28t69.5 11q129 0 226.5 -57.5z" glyph-name="h" horiz-adv-x="1104" unicode="h"/>
<glyph d="M553 787v-608q0 -95 -50 -143.5t-148 -48.5q-97 0 -146.5 48.5t-49.5 143.5v432q-74 7 -112 54t-38 130q0 92 45.5 138.5t135.5 46.5h169q89 0 137 -42q57 -48 57 -151zM243 1103.5q-43 25.5 -69 68.5t-26 93q0 49 26 91.5t69 68t92 25.5t91.5 -25.5t67.5 -68t25 -91.5 q0 -50 -25 -93t-67.5 -68.5t-91.5 -25.5t-92 25.5z" glyph-name="i" horiz-adv-x="636" unicode="i"/>
<glyph d="M553 787v-789q0 -107 -42 -186.5t-125.5 -123.5t-204.5 -44q-29 0 -51.5 3.5t-59.5 12.5q-71 17 -112.5 55.5t-41.5 111.5q0 76 39 118.5t101 42.5q18 0 28 -2q30 -5 42 -5q13 0 23 10.5t10 38.5v581q-74 7 -112 54t-38 130q0 92 45.5 138.5t135.5 46.5h169q89 0 137 -42 q57 -48 57 -151zM251 1101.5q-43 25.5 -69 68.5t-26 93q0 49 26 91.5t69 68t92 25.5t91.5 -25.5t67.5 -68t25 -91.5q0 -50 -25 -93t-67.5 -68.5t-91.5 -25.5t-92 25.5z" glyph-name="j" horiz-adv-x="636" unicode="j"/>
<glyph d="M1011 280.5q27 -48.5 27 -101.5q0 -43 -27 -85t-73 -68.5t-99 -26.5q-40 0 -80 20.5t-83 65.5l-180 191l-10 -2v-94q0 -90 -53 -141.5t-144 -51.5q-90 0 -143 52t-53 141v976q0 89 53 141.5t144 52.5q90 0 143 -52.5t53 -141.5v-250q98 98 252 98q78 0 138 -34t94 -98 t34 -151q0 -84 -38.5 -158.5t-105.5 -134.5l85 -68q39 -31 66 -79.5zM574.5 688.5q-28.5 -17.5 -50 -50.5t-26.5 -77l70 20q53 15 78 39.5t25 47.5q0 38 -45 38q-23 0 -51.5 -17.5z" glyph-name="k" horiz-adv-x="1058" unicode="k"/>
<glyph d="M562 1117v-938q0 -192 -197 -192q-97 0 -146.5 48.5t-49.5 143.5v769q-79 7 -119.5 56.5t-40.5 138.5q0 98 48.5 147.5t144.5 49.5h165q30 0 51 -4q93 -16 127 -94q18 -42 18 -99q0 -18 -1 -26z" glyph-name="l" horiz-adv-x="646" unicode="l"/>
<glyph d="M1303.5 957.5q93.5 -53.5 144.5 -150t51 -222.5v-399q0 -98 -50.5 -148.5t-150.5 -50.5q-193 0 -193 199v374q0 42 -17 68.5t-42 26.5q-29 0 -63 -16q4 -31 4 -73v-380q0 -99 -50.5 -149t-150.5 -50q-95 0 -144 50.5t-49 148.5v372q0 42 -17 69.5t-41 27.5q-36 0 -58 -16 v-453q0 -98 -48.5 -148.5t-142.5 -50.5q-100 0 -151.5 50.5t-51.5 148.5v626q0 108 107 141q90 26 180.5 42t203.5 16q120 0 212 -52q139 52 299 52q125 0 218.5 -53.5z" glyph-name="m" horiz-adv-x="1575" unicode="m"/>
<glyph d="M810 954q99 -57 153.5 -156t54.5 -219v-393q0 -98 -50.5 -148.5t-150.5 -50.5q-96 0 -144.5 50.5t-48.5 148.5v380q0 39 -24 64t-57 25q-32 0 -66 -14v-455q0 -98 -48.5 -148.5t-142.5 -50.5q-100 0 -151.5 50.5t-51.5 148.5v626q0 49 19.5 83t54.5 48q80 32 189.5 50 t235.5 18q129 0 228 -57z" glyph-name="n" horiz-adv-x="1094" unicode="n"/>
<glyph d="M62 582q0 124 62 222t169 152.5t237 54.5q129 0 236 -54.5t169 -152.5t62 -222v-177q0 -123 -62.5 -220.5t-169.5 -152t-235 -54.5q-130 0 -237 55t-169 152t-62 220v177zM456 413q0 -39 20.5 -59t53.5 -20q32 0 52.5 20t20.5 59v162q0 39 -20 59.5t-52 20.5 q-33 0 -54 -20.5t-21 -59.5v-162z" glyph-name="o" horiz-adv-x="1059" unicode="o"/>
<glyph d="M504 -8.5q-23 3.5 -57 15.5l29 -66v-107q0 -95 -49.5 -144t-146.5 -49t-147 49t-50 144v949q0 55 10.5 86t40 53t90.5 42q67 23 174 35t192 12q127 0 224 -56.5t150.5 -155.5t53.5 -224v-158q0 -113 -59 -212t-166 -158t-242 -59q-24 0 -47 3.5zM602.5 626.5 q-21.5 22.5 -53.5 22.5q-27 0 -53 -7q-4 -1 -9.5 -2t-10.5 -1v-290q32 -15 73 -15q32 0 53.5 23.5t21.5 62.5v145q0 39 -21.5 61.5z" glyph-name="p" horiz-adv-x="1080" unicode="p"/>
<glyph d="M287.5 39.5q-106.5 61.5 -166 162.5t-59.5 215v158q0 125 53.5 224t151 155.5t224.5 56.5q84 0 190.5 -12t174.5 -35q61 -20 90.5 -42t40 -53t10.5 -86v-949q0 -95 -50 -144t-147 -49t-147 49t-50 144v97l30 66q-34 -12 -57 -15.5t-47 -3.5q-135 0 -241.5 61.5zM456 420 q0 -39 21 -62.5t53 -23.5q19 0 35 4t38 11v290q-34 15 -73 15q-31 0 -52.5 -24.5t-21.5 -64.5v-145z" glyph-name="q" horiz-adv-x="1080" unicode="q"/>
<glyph d="M545 621q-26 2 -34 2q-6 0 -16.5 -1t-18.5 -3v-433q0 -98 -48 -148.5t-142 -50.5q-101 0 -152 50t-51 149v619q0 79 101 137q71 40 149 54.5t166 14.5q102 0 170 -22q56 -20 83 -64.5t27 -107.5q0 -99 -50 -149t-125 -50q-5 0 -59 3z" glyph-name="r" horiz-adv-x="807" unicode="r"/>
<glyph d="M216 431q-61 34 -105.5 99t-44.5 165q0 88 46.5 158t128 109.5t181.5 39.5q77 0 142 -13t131 -45q49 -24 74 -66t25 -97q0 -42 -19.5 -77t-54 -55.5t-78.5 -20.5q-32 0 -95 19l-21 6q-42 11 -90 11q-35 0 -35 -15q0 -13 23.5 -28.5t104.5 -36.5q133 -35 201.5 -107 t68.5 -186q0 -92 -51 -162.5t-136.5 -109t-185.5 -38.5q-131 0 -271 54q-63 26 -93 69.5t-30 96.5q0 73 42 110.5t107 37.5q19 0 40.5 -5t52.5 -15q38 -12 55 -16q42 -9 104 -9q16 0 25.5 4.5t9.5 11.5q0 11 -12.5 17t-43.5 15q-31 8 -52 16q-83 29 -144 63z" glyph-name="s" horiz-adv-x="847" unicode="s"/>
<glyph d="M626 339q81 0 129.5 -44t48.5 -113q0 -84 -46.5 -127.5t-150.5 -65.5q-46 -10 -100 -10q-175 0 -270 90t-95 257v326q-62 11 -96.5 51.5t-34.5 99.5q0 72 34 116.5t97 55.5v169q0 95 50 144t147 49t147 -49t50 -144v-165h68q91 0 138.5 -45.5t47.5 -130.5 q0 -71 -48.5 -113t-137.5 -42h-68v-303q0 -13 14 -13t24.5 2t15.5 3q12 2 36 2z" glyph-name="t" horiz-adv-x="841" unicode="t"/>
<glyph d="M278.5 35q-97.5 57 -150 159.5t-52.5 235.5v373q0 99 50.5 149t150.5 50q95 0 144 -50t49 -149v-374q0 -42 21 -68.5t53 -26.5q41 0 73 14v455q0 99 48 149t143 50q101 0 152 -50t51 -149v-626q0 -48 -20 -82t-55 -48q-81 -33 -192.5 -51t-238.5 -18q-129 0 -226.5 57z " glyph-name="u" horiz-adv-x="1094" unicode="u"/>
<glyph d="M839 978.5q47 -23.5 74 -66t27 -95.5q0 -44 -18 -87l-253 -613q-24 -58 -76 -92t-117 -34q-61 0 -113.5 33t-77.5 93l-253 614q-18 45 -18 85q0 54 28 96.5t74.5 66t99.5 23.5q67 0 112 -27.5t59 -81.5l90 -345l90 343q15 57 60 84t109 27q56 0 103 -23.5z" glyph-name="v" horiz-adv-x="955" unicode="v"/>
<glyph d="M1326 959q48 -23 77 -64.5t29 -96.5q0 -34 -12 -72l-181 -545q-32 -95 -94.5 -142.5t-141.5 -47.5q-85 0 -148 42.5t-81 130.5l-51 252l-51 -252q-18 -86 -81.5 -129.5t-146.5 -43.5q-79 0 -141.5 47.5t-94.5 142.5l-181 545q-13 38 -13 73q0 55 30 97t79 64t105 22 q66 0 108 -36.5t59 -106.5l77 -313l49 314q12 80 71 117t132 37q74 0 131 -36t71 -121l49 -308l77 310q35 143 171 143q55 0 103 -23z" glyph-name="w" horiz-adv-x="1446" unicode="w"/>
<glyph d="M870 283q35 -51 35 -106q0 -50 -27 -94t-72.5 -70t-97.5 -26q-47 0 -89 23.5t-72 66.5l-76 106l-77 -106q-63 -90 -160 -90q-52 0 -98.5 27t-74 71.5t-27.5 94.5q0 53 34 103l165 233l-133 187q-34 49 -34 102q0 51 29 96.5t77.5 73t102.5 27.5q88 0 150 -89l74 -105 l74 102q30 44 69.5 68t86.5 24q53 0 99 -27t73.5 -72t27.5 -97q0 -54 -30 -103l-165 -228z" glyph-name="x" horiz-adv-x="963" unicode="x"/>
<glyph d="M1012 543v-475q0 -128 -52.5 -224.5t-144 -149t-206.5 -52.5q-102 0 -147 8q-95 17 -142 60.5t-47 117.5q0 87 38.5 126t116.5 39q24 0 51 -3q42 -5 58 -4.5t19 0.5q40 0 62.5 19t27.5 52q-71 -19 -141 -19q-130 0 -227 52.5t-149.5 150t-52.5 229.5v333q0 99 50.5 149 t150.5 50q95 0 144 -50t49 -149v-374q0 -42 21 -68.5t53 -26.5q23 0 35.5 2.5t37.5 11.5v455q0 99 48 149t143 50q101 0 152 -50t51 -149v-260h1z" glyph-name="y" horiz-adv-x="1095" unicode="y"/>
<glyph d="M878.5 340q53.5 -49 53.5 -144q0 -97 -53.5 -146.5t-157.5 -49.5h-481q-60 0 -101 31t-61 78.5t-20 96.5q0 35 16 75.5t40 72.5l218 247h-63q-101 0 -152.5 50t-51.5 147q0 94 51.5 142.5t152.5 48.5h458q58 0 99.5 -27.5t62.5 -74t21 -101.5q0 -42 -18 -79t-47 -75 l-212 -243h88q104 0 157.5 -49z" glyph-name="z" horiz-adv-x="973" unicode="z"/>
<glyph d="M888 46q50 -50 50 -147t-50 -147.5t-147 -50.5q-120 0 -215 49.5t-149 141t-54 212.5v157q0 26 -18.5 49.5t-42.5 24.5q-86 12 -130.5 64t-44.5 141q0 92 44.5 144t130.5 62q24 0 42.5 23.5t18.5 49.5v155q0 121 53 213t148 142t217 50q97 0 147 -50.5t50 -147.5 t-50 -147t-147 -50q-13 0 -15.5 -9.5t-2.5 -35.5v-153q0 -67 -37 -130.5t-98 -115.5q62 -51 98.5 -116.5t36.5 -131.5v-152q0 -25 2.5 -34.5t15.5 -9.5q97 0 147 -50z" glyph-name="braceleft" horiz-adv-x="983" unicode="{"/>
<glyph d="M129 1109q0 99 50 150.5t148 51.5q99 0 150.5 -51.5t51.5 -150.5v-1171q0 -100 -51.5 -151t-150.5 -51q-98 0 -148 51t-50 151v1171z" glyph-name="bar" horiz-adv-x="658" unicode="|"/>
<glyph d="M851.5 684q44.5 -52 44.5 -144q0 -89 -44.5 -141t-130.5 -64q-24 -1 -42.5 -24.5t-18.5 -49.5v-157q0 -121 -54 -212.5t-149 -141t-215 -49.5q-97 0 -147 50.5t-50 147.5t50 147t147 50q13 0 15.5 9.5t2.5 34.5v152q0 66 36.5 131.5t98.5 116.5q-61 52 -98 115.5 t-37 130.5v153q0 26 -2.5 35.5t-15.5 9.5q-97 0 -147 50t-50 147t50 147.5t147 50.5q122 0 217 -50t148 -142t53 -213v-155q0 -26 18.5 -49.5t42.5 -23.5q86 -10 130.5 -62z" glyph-name="braceright" horiz-adv-x="983" unicode="}"/>
<glyph d="M1019 610q15 -38 15 -78t-15.5 -77.5t-45.5 -67.5q-5 -2 -12 -6l-14 -8q-188 -112 -291 -112q-57 0 -97 12.5t-77 45.5l-15 15q-9 11 -16.5 16t-19.5 5q12 0 3.5 0.5t-20.5 -2.5t-29 -13q-29 -27 -66 -41t-76 -14q-41 0 -77.5 15t-65.5 44q-27 29 -41 65t-14 75 q0 40 15 77.5t44 66.5l20 12q188 117 294 117q55 0 95.5 -14t80.5 -47q1 -1 14.5 -17.5t35.5 -16.5q-7 0 -3 -2.5t18.5 1t40.5 17.5q74 55 149 55q71 0 126 -54q29 -31 44 -69z" glyph-name="asciitilde" horiz-adv-x="1042" unicode="~"/>
<glyph glyph-name="uni00A0" horiz-adv-x="461" unicode=" "/>
<glyph d="M459 979q50 -30 80 -81t30 -110q0 -58 -30 -108.5t-80.5 -80.5t-108.5 -30q-59 0 -109.5 30t-81 80.5t-30.5 108.5q0 59 30.5 110t81 81t109.5 30t109 -30zM498.5 424.5q51.5 -50.5 51.5 -149.5v-399q0 -100 -51 -151t-149 -51t-149 51t-51 151v399q0 99 50 149.5 t148 50.5q99 0 150.5 -50.5z" glyph-name="exclamdown" horiz-adv-x="698" unicode="¡"/>
<glyph d="M807 364.5q35 -27.5 56.5 -72t21.5 -92.5q0 -43 -18.5 -81t-57.5 -67q-43 -31 -85 -46v-94q0 -99 -48.5 -150.5t-142.5 -51.5q-90 0 -137 51.5t-47 150.5v97q-87 32 -152 94t-100 144t-35 174v147q0 90 34 171t98.5 143t153.5 95v131q0 99 47 150.5t138 51.5 q94 0 142.5 -51.5t48.5 -150.5v-127q48 -17 85 -44q39 -29 57.5 -67t18.5 -81q0 -48 -21.5 -92.5t-57 -72t-74.5 -27.5q-39 1 -61 6t-55 18l-22 9q-39 15 -71 15q-27 0 -47 -25.5t-20 -61.5v-128q0 -37 20 -61.5t47 -24.5q32 0 71 15q9 4 33 14t49 14.5t56 4.5 q40 0 75 -27.5z" glyph-name="cent" horiz-adv-x="934" unicode="¢"/>
<glyph d="M955 347q50 -51 50 -151t-50 -149.5t-148 -46.5h-478q-96 0 -148 62.5t-52 169.5v271h-54q-118 0 -118 122q0 56 30 84.5t88 28.5h54v70q0 140 52 258.5t159 190.5t265 72q78 0 137.5 -15t139.5 -49q58 -26 86 -70t28 -96q0 -51 -23.5 -99t-61 -78.5t-78.5 -30.5 q-24 0 -48.5 5.5t-64.5 17.5l-45 13q-14 1 -22.5 0.5t-12.5 -0.5q-5 -1 -22 -1q-49 0 -69 -30.5t-20 -100.5v-57h49q59 0 89 -29.5t30 -87.5t-30 -88t-89 -30h-49v-104l278 -1q98 0 148 -51z" glyph-name="sterling" horiz-adv-x="1025" unicode="£"/>
<glyph d="M83 229q0 50 42 101l39 53q-42 81 -42 174q0 98 47 184l-38 49q-48 54 -48 107q0 65 69 123q52 45 104 45q62 0 118 -68l46 -60q30 1 85 1q57 0 86 -1l47 60q52 61 114 61q47 0 99 -35q80 -52 80 -120q0 -54 -50 -113l-38 -49q45 -84 45 -184q0 -97 -42 -174l42 -59 q37 -53 37 -103q0 -64 -65 -114q-53 -41 -105 -41q-63 0 -117 63l-45 59q-30 -1 -88 -1l-87 1l-44 -59q-56 -68 -118 -68q-52 0 -104 46q-69 59 -69 122zM543.5 524.5q15.5 16.5 15.5 39.5t-15 39t-39 16q-23 0 -39.5 -16t-16.5 -39t16.5 -39.5t39.5 -16.5t38.5 16.5z" glyph-name="currency" horiz-adv-x="989" unicode="¤"/>
<glyph d="M1024 1294.5q47 -28.5 73.5 -76.5t26.5 -105q0 -69 -39 -133l-202 -317q57 -25 57 -106q0 -59 -30.5 -89.5t-88.5 -30.5h-47v-8h48q59 0 89 -29.5t30 -87.5t-30 -88t-89 -30h-48q0 -103 -53.5 -155t-157.5 -52q-105 0 -158.5 52t-53.5 155h-32q-118 0 -118 122 q0 56 30 84.5t88 28.5h32v8h-33q-58 0 -88 31t-30 92q0 70 45 97l-206 323q-41 66 -41 135q0 57 26.5 104.5t73.5 75.5t106 28q51 0 97 -25.5t75 -78.5l186 -353l185 353q29 54 74 79t99 25q57 0 104 -28.5z" glyph-name="yen" horiz-adv-x="1122" unicode="¥"/>
<glyph d="M129 1113q0 99 50.5 149.5t149.5 50.5q100 0 151.5 -50.5t51.5 -149.5v-328q0 -100 -51.5 -151.5t-151.5 -51.5q-98 0 -149 51.5t-51 151.5v328zM129 222q0 98 51 148t149 50q100 0 151.5 -50t51.5 -148v-337q0 -98 -51.5 -149t-151.5 -51q-98 0 -149 51t-51 149v337z " glyph-name="brokenbar" horiz-adv-x="661" unicode="¦"/>
<glyph d="M939 270q37 -67 37 -183q0 -128 -55.5 -226.5t-151.5 -152.5t-214 -54q-88 0 -148.5 10t-104 27t-103.5 48q-38 26 -61.5 67.5t-23.5 90.5q0 47 23.5 90t64 69.5t90.5 26.5q47 0 99 -28q18 -1 52 -7q61 -9 98 -9t37 22q0 8 -3 14q-1 13 -4 18.5t-14.5 10.5t-45.5 16 q-84 28 -163 58q-289 107 -289 345q0 55 20 106t54 90q-40 70 -40 199q0 104 47 198t151 155t264 61q69 0 149.5 -25t164.5 -60q97 -65 98 -155q0 -44 -26.5 -87.5t-71.5 -71.5t-97 -28q-46 0 -95 25q-37 4 -52 7q-60 10 -97 10q-39 0 -39 -23q0 -7 4 -13q1 -18 4.5 -25 t16.5 -12.5t50 -16.5q55 -15 157 -49q118 -38 203 -121t85 -214q0 -124 -70 -203zM619 446l36 -12q0 14 -3.5 22.5t-16.5 17t-42 18.5q-86 32 -181 62q-1 -2 -4 -6.5t-3 -9.5q0 -22 72 -45q28 -10 142 -47z" glyph-name="section" horiz-adv-x="1046" unicode="§"/>
<glyph d="M70 1337q22 37 59.5 59t81.5 22q43 0 80.5 -22t60 -59t22.5 -79q0 -44 -22.5 -81.5t-60 -59.5t-80.5 -22q-45 0 -82.5 22t-59 59.5t-21.5 81.5q0 42 22 79zM567.5 1337q22.5 37 60 59t81.5 22q43 0 80 -22t59.5 -59t22.5 -79q0 -44 -22 -81.5t-59.5 -59.5t-80.5 -22 q-45 0 -82.5 22t-59.5 59.5t-22 81.5q0 42 22.5 79z" glyph-name="dieresis" horiz-adv-x="907" unicode="¨"/>
<glyph d="M1086 1239.5q156 -91.5 247.5 -247.5t91.5 -339q0 -182 -91.5 -337t-247.5 -246t-339 -91q-184 0 -338.5 91t-244.5 245.5t-90 337.5q0 184 90 340t244.5 247t338.5 91q183 0 339 -91.5zM938 330q86 49 136 134t50 189q0 102 -50 187.5t-136 135.5t-189 50t-188.5 -50 t-135.5 -135.5t-50 -187.5q0 -104 49.5 -189t135 -134t189.5 -49q103 0 189 49zM1026 710.5q-26 -37.5 -67 -55.5q42 -18 67.5 -56.5t25.5 -74.5q0 -20 -8.5 -44.5t-28.5 -47.5q-45 -52 -111.5 -89.5t-157.5 -37.5q-97 0 -172.5 46t-117 121.5t-41.5 161.5v42q0 86 42 161.5 t120 121.5t180 46q81 0 144.5 -33.5t107.5 -82.5q21 -26 32 -54.5t11 -52.5q0 -34 -26 -71.5zM741.5 599q0.5 -2 3.5 -4t8 -2q9 0 21 8q44 41 73 54q-17 7 -33 20t-41 36q-11 8 -20 8q-5 0 -8 -2t-4 -4.5t1 -2.5q-8 0 -14.5 -13t-6.5 -30v-22q0 -18 6.5 -31t14.5 -13 q-1 0 -0.5 -2z" glyph-name="copyright" horiz-adv-x="1499" unicode="©"/>
<glyph d="M398.5 1302q61.5 -31 94 -85t32.5 -123v-211q0 -30 -5.5 -47.5t-24 -32t-58.5 -29.5q-35 -13 -86.5 -17t-122.5 -4q-88 0 -146 43t-58 117v6q0 97 58.5 142t150.5 45h28.5t32.5 -2q-9 10 -30 10q-9 0 -23 1t-26 0q-7 -1 -13 -2t-10 -2q-20 -5 -42 -5q-23 0 -43 15.5 t-32.5 39t-12.5 47.5q0 37 15 62t54 42q46 21 124 21q82 0 143.5 -31zM249 933v2v0v-2z" glyph-name="ordfeminine" horiz-adv-x="565" unicode="ª"/>
<glyph d="M699 244q0 -54 -27.5 -104t-72.5 -81t-94 -31q-43 0 -81 15t-66 46l-239 252q-27 29 -42 64t-15 73q0 89 75 166l224 231q28 30 66.5 45.5t77.5 15.5q50 0 96 -31t74 -81.5t28 -104.5q0 -73 -53 -130l-100 -106l97 -108q52 -58 52 -131zM1294 244q0 -54 -27.5 -104 t-73 -81t-94.5 -31q-42 0 -80 15t-67 46l-238 252q-27 29 -42 64t-15 73q0 89 75 166l224 231q28 30 66.5 45.5t77.5 15.5q50 0 96 -31t74 -81.5t28 -104.5q0 -73 -53 -130l-100 -106l97 -108q52 -58 52 -131z" glyph-name="guillemotleft" horiz-adv-x="1398" unicode="«"/>
<glyph d="M696.5 167q-51.5 51 -51.5 151v98l-399 -1q-99 0 -150.5 50.5t-51.5 148.5q0 99 51.5 150.5t150.5 51.5h608q95 -4 144 -54.5t49 -147.5v-296q0 -100 -50.5 -151t-148.5 -51q-100 0 -151.5 51z" glyph-name="logicalnot" horiz-adv-x="1135" unicode="¬"/>
<glyph d="M113 331q-51 47 -51 138q0 94 51 142t151 48h325q99 0 150.5 -48t51.5 -142q0 -91 -51.5 -138t-150.5 -47h-325q-100 0 -151 47z" glyph-name="uni00AD" horiz-adv-x="862" unicode="­"/>
<glyph d="M1086 1239.5q156 -91.5 247.5 -247.5t91.5 -339q0 -182 -91.5 -337t-247.5 -246t-339 -91q-184 0 -338.5 91t-244.5 245.5t-90 337.5q0 184 90 340t244.5 247t338.5 91q183 0 339 -91.5zM948 311.5q91 51.5 144 141.5t53 200q0 108 -53 198.5t-144 143t-199 52.5 t-199 -52.5t-143.5 -143t-52.5 -198.5q0 -110 52.5 -200t143 -141.5t199.5 -51.5q108 0 199 51.5zM1033 674q0 -47 -15 -83l8 -11q29 -38 29 -85q0 -39 -18.5 -75t-49 -58.5t-63.5 -22.5q-26 0 -50 10t-41 30l-50 59h-14h-5v22l-1 2q-12 -114 -138 -114q-68 0 -103.5 35 t-35.5 103v363q0 37 18.5 69t50.5 51t70 19h141q66 0 127.5 -33t100.5 -93t39 -137v-51zM753 720q-2 -4 -2 -6t4 -3v16q0 -3 -2 -7zM754.5 682.5q0.5 -1.5 0.5 -3.5v7q-1 -2 -0.5 -3.5z" glyph-name="registered" horiz-adv-x="1499" unicode="®"/>
<glyph d="M604 1377q73 0 110 -36t37 -106q0 -74 -37 -112.5t-110 -38.5h-269q-70 0 -106.5 38.5t-36.5 112.5q0 70 36.5 106t106.5 36h269z" glyph-name="macron" horiz-adv-x="898" unicode="¯"/>
<glyph d="M327 581q-92 56 -147 149t-55 200q0 109 55 201t147 146t198 54q110 0 202 -54t145 -146t53 -201q0 -108 -53.5 -201t-145 -148.5t-201.5 -55.5q-106 0 -198 56zM596 859.5q30 30.5 30 70.5q0 42 -29.5 72t-71.5 30q-41 0 -71 -30t-30 -72q0 -40 30.5 -70.5t70.5 -30.5 q41 0 71 30.5z" glyph-name="degree" horiz-adv-x="999" unicode="°"/>
<glyph d="M810.5 314q51.5 -48 51.5 -142q0 -91 -52 -138t-152 -47h-425q-100 0 -151 47t-51 138q0 94 51 142t151 48h20v15h-41q-98 0 -149 47.5t-51 139.5t51 140t149 48h41v41q0 98 48 148.5t141 50.5q92 0 139 -50.5t47 -148.5v-41h42q98 0 148.5 -48.5t50.5 -142.5 q0 -91 -50.5 -137.5t-148.5 -46.5h-42v-15h30q101 0 152.5 -48z" glyph-name="plusminus" horiz-adv-x="880" unicode="±"/>
<glyph d="M104.5 788q-34.5 36 -34.5 85q0 21 10 43t25 40l228 257q22 24 29.5 36.5t7.5 30.5v-2q0 8 -1.5 11.5t-9.5 6t-27 2.5q-35 0 -60 -13q-7 -4 -20 -12t-25.5 -13t-26.5 -5q-35 0 -63 15.5t-43.5 40.5t-15.5 53q0 36 14 60.5t40 43.5q29 21 85.5 41.5t132.5 20.5 q75 0 132.5 -30.5t89 -84t31.5 -120.5v-23q0 -98 -93 -195l-88 -91h74q58 0 88.5 -29.5t30.5 -85.5q0 -58 -30.5 -88.5t-88.5 -30.5h-308q-49 0 -83.5 36z" glyph-name="uni00B2" horiz-adv-x="653" unicode="²"/>
<glyph d="M585.5 1172.5q47.5 -56.5 47.5 -157.5v-7q0 -79 -37.5 -139.5t-102.5 -94t-144 -33.5q-78 0 -137 28q-61 29 -89.5 60t-28.5 77q0 26 12.5 53t38.5 45t64 18q14 0 31.5 -6t44.5 -21q50 -28 76 -28q17 0 28 11.5t11 36.5q0 13 -9 20.5t-35 7.5h-73q-47 0 -79.5 32.5 t-32.5 79.5q0 22 8.5 44t25.5 34l85 60h-73q-57 0 -87 27.5t-30 80.5q0 57 30 87t87 30h268q60 0 89.5 -28.5t29.5 -78.5q0 -34 -15 -61.5t-42 -45.5l-97 -68q88 -7 135.5 -63.5z" glyph-name="uni00B3" horiz-adv-x="695" unicode="³"/>
<glyph d="M391 1142q-46 -50 -111 -50q-44 0 -77 20t-51 53.5t-18 72.5t18 76l33 91q20 40 42.5 59t44.5 23.5t52 4.5q43 0 83.5 -26.5t66 -69.5t25.5 -88q0 -60 -42 -103z" glyph-name="acute" horiz-adv-x="532" unicode="´"/>
<glyph d="M953.5 952q48.5 -48 48.5 -142v-568q0 -81 -28 -140t-105 -86q-45 -16 -127.5 -26.5t-157.5 -10.5q-73 0 -126 36v-176q0 -92 -46.5 -138.5t-138.5 -46.5q-94 0 -142 49.5t-48 145.5v576l247 1v7l-247 -8v385q0 94 48.5 142t144.5 48q89 0 135.5 -48t46.5 -142v-374 q0 -49 23 -72t60 -23q11 0 29 -2l24 -1q18 0 33 5v467q0 94 46.5 142t137.5 48q94 0 142.5 -48z" glyph-name="uni00B5" horiz-adv-x="1085" unicode="µ"/>
<glyph d="M1274 1253.5q57 -57.5 57 -169.5v-882q0 -99 -52.5 -150.5t-154.5 -51.5q-95 0 -144 55t-49 162v695h-74v-698q0 -106 -48.5 -160t-143.5 -54q-101 0 -153.5 51.5t-52.5 150.5v325h-1q-131 0 -229 48t-150.5 137t-52.5 209q0 119 52.5 207t150.5 135.5t229 47.5h647 q112 0 169 -57.5z" glyph-name="paragraph" horiz-adv-x="1460" unicode="¶"/>
<glyph d="M357 341q-43 25 -68 67.5t-25 93.5t25 93.5t68 67.5t93 25t93 -25t68.5 -67.5t25.5 -93.5t-25 -93.5t-68 -67.5t-94 -25q-50 0 -93 25z" glyph-name="periodcentered" horiz-adv-x="883" unicode="·"/>
<glyph d="M169 0h190l-26 -60q76 -9 131 -52.5t55 -117.5q0 -75 -44 -137.5t-122 -84.5l-34 -10q-18 -6 -36 -6q-49 0 -82.5 38t-33.5 98q0 65 71 84l4 1q1 1 6 1h6q14 0 14 6q0 3 -2.5 5t-13.5 2q-10 0 -17 -1q-45 -1 -67.5 17t-22.5 56q0 14 3 31z" glyph-name="cedilla" horiz-adv-x="523" unicode="¸"/>
<glyph d="M362 1493q28 -32 28 -80l-1 -549q0 -118 -112 -118q-59 0 -89.5 30t-30.5 88v344l21 19q-8 -7 -19.5 -9t-30.5 -2q-32 0 -56 17t-37 43.5t-13 54.5q2 31 16.5 58t42.5 44l120 69q25 15 37.5 18t38.5 5q57 0 85 -32z" glyph-name="uni00B9" horiz-adv-x="519" unicode="¹"/>
<glyph d="M23 1085q0 70 35 126.5t95.5 89t134.5 32.5q72 0 132.5 -32t95.5 -89t35 -127v-87q0 -69 -35.5 -125t-95.5 -88t-132 -32q-73 0 -133.5 32t-96 88t-35.5 125v87zM248 1009q0 -37 40 -37q39 0 39 37v66q0 39 -39 39q-40 0 -40 -39v-66z" glyph-name="ordmasculine" horiz-adv-x="574" unicode="º"/>
<glyph d="M253 483l-100 106q-53 57 -53 130q0 54 28 104.5t74.5 81.5t96.5 31q38 0 76.5 -15.5t66.5 -45.5l224 -231q75 -77 75 -166q0 -38 -15 -73t-42 -64l-238 -252q-29 -31 -67 -46t-80 -15q-49 0 -94 31t-73 81t-28 104q0 73 52 131zM848 483l-100 106q-53 57 -53 130 q0 54 28 104.5t74.5 81.5t96.5 31q38 0 76.5 -15.5t66.5 -45.5l224 -231q75 -77 75 -166q0 -38 -15 -73t-42 -64l-239 -252q-28 -31 -66 -46t-81 -15q-49 0 -94 31t-72.5 81t-27.5 104q0 73 52 131z" glyph-name="guillemotright" horiz-adv-x="1398" unicode="»"/>
<glyph d="M362 1293q28 -32 28 -80l-1 -549q0 -118 -112 -118q-59 0 -89.5 30t-30.5 88v344l21 19q-8 -7 -19.5 -9t-30.5 -2q-32 0 -56 17t-37 43.5t-13 54.5q2 31 16.5 58t42.5 44l120 69q25 15 37.5 18t38.5 5q57 0 85 -32zM680 105q-28 -63 -58 -90.5t-78 -27.5q-77 0 -121.5 37 t-44.5 99q0 41 23 92l461 995q22 46 58.5 72.5t84.5 27.5q79 0 117 -34.5t38 -93.5q0 -54 -29 -120zM1351 7.5q-30 29.5 -30 87.5v28h-169q-53 0 -85.5 33.5t-32.5 97.5q0 20 12 56l120 366q12 36 40.5 53.5t69.5 17.5q118 0 118 -91q0 -29 -12 -67l-75 -233h14v1 q0 58 30 88t89 30q56 0 85 -30t29 -88v-1h-23q56 0 85 -29.5t29 -86.5q0 -58 -29 -87.5t-85 -29.5h23v-28q0 -57 -29 -87t-85 -30q-59 0 -89 29.5z" glyph-name="onequarter" horiz-adv-x="1774" unicode="¼"/>
<glyph d="M362 1293q28 -32 28 -80l-1 -549q0 -118 -112 -118q-59 0 -89.5 30t-30.5 88v344l21 19q-8 -7 -19.5 -9t-30.5 -2q-32 0 -56 17t-37 43.5t-13 54.5q2 31 16.5 58t42.5 44l120 69q25 15 37.5 18t38.5 5q57 0 85 -32zM657 105q-28 -63 -58 -90.5t-78 -27.5q-77 0 -121.5 37 t-44.5 99q0 41 23 92l461 995q22 46 58.5 72.5t84.5 27.5q79 0 117 -34.5t38 -93.5q0 -54 -29 -120zM1045.5 14q-34.5 36 -34.5 85q0 21 10 43t25 40l228 257q22 24 29.5 36.5t7.5 30.5v-2q0 8 -1.5 11.5t-9.5 6t-27 2.5q-35 0 -60 -13q-7 -4 -20 -12t-25.5 -13t-26.5 -5 q-35 0 -63 15.5t-43.5 40.5t-15.5 53q0 36 14 60.5t40 43.5q29 21 85.5 41.5t132.5 20.5q75 0 132.5 -30.5t89 -84t31.5 -120.5v-23q0 -98 -93 -195l-88 -91h74q58 0 88.5 -29.5t30.5 -85.5q0 -58 -30.5 -88.5t-88.5 -30.5h-308q-49 0 -83.5 36z" glyph-name="onehalf" horiz-adv-x="1685" unicode="½"/>
<glyph d="M585.5 972.5q47.5 -56.5 47.5 -157.5v-7q0 -79 -37.5 -139.5t-102.5 -94t-144 -33.5q-78 0 -137 28q-61 29 -89.5 60t-28.5 77q0 26 12.5 53t38.5 45t64 18q14 0 31.5 -6t44.5 -21q50 -28 76 -28q17 0 28 11.5t11 36.5q0 13 -9 20.5t-35 7.5h-73q-47 0 -79.5 32.5 t-32.5 79.5q0 22 8.5 44t25.5 34l85 60h-73q-57 0 -87 27.5t-30 80.5q0 57 30 87t87 30h268q60 0 89.5 -28.5t29.5 -78.5q0 -34 -15 -61.5t-42 -45.5l-97 -68q88 -7 135.5 -63.5zM815 105q-28 -63 -58 -90.5t-78 -27.5q-77 0 -121.5 37t-44.5 99q0 41 23 92l461 995 q22 46 58.5 72.5t84.5 27.5q79 0 117 -34.5t38 -93.5q0 -54 -29 -120zM1394 7.5q-30 29.5 -30 87.5v28h-169q-53 0 -85.5 33.5t-32.5 97.5q0 20 12 56l120 366q12 36 40.5 53.5t69.5 17.5q118 0 118 -91q0 -29 -12 -67l-75 -233h14v1q0 58 30 88t89 30q56 0 85 -30t29 -88 v-1h-23q56 0 85 -29.5t29 -86.5q0 -58 -29 -87.5t-85 -29.5h23v-28q0 -57 -29 -87t-85 -30q-59 0 -89 29.5z" glyph-name="threequarters" horiz-adv-x="1750" unicode="¾"/>
<glyph d="M786 145q42 -24 65.5 -66.5t23.5 -97.5q0 -38 -14 -78t-46 -71q-71 -67 -177 -116.5t-230 -49.5q-110 0 -203.5 48t-148.5 131.5t-55 184.5v13q0 108 44 174.5t137 123.5q117 75 164 126q27 43 56.5 70t75.5 36q-49 10 -89 41.5t-63 77t-23 96.5q0 59 30 110t80 81 t108 30q59 0 109.5 -30t81 -81t30.5 -110q0 -51 -23.5 -96.5t-64 -77t-90.5 -41.5q67 -11 104 -51t37 -104q2 -70 -33 -126t-87 -96.5t-139 -95.5l-20 -13q-22 -9 -26 -13t-2 -6t2 -4v-3q0 6 8 6l18 -1q8 0 18 -1t23 -1q43 0 78 24l23 19q36 31 62.5 46.5t61.5 15.5 q52 0 94 -24z" glyph-name="questiondown" horiz-adv-x="913" unicode="¿"/>
<glyph d="M1149 181q0 -54 -24.5 -98t-74.5 -70t-122 -26q-64 0 -115 28t-67 86l-17 69h-295l-17 -69q-16 -58 -68.5 -86t-117.5 -28q-64 0 -113.5 25t-76.5 69.5t-27 100.5q0 40 17 88l351 938q22 58 74 86.5t127 28.5q73 0 125.5 -28t72.5 -85l352 -940q16 -44 16 -89zM650 489 l-67 270l-68 -270h135zM351 1607q0 45 25.5 88t66 69.5t83.5 26.5q30 0 52 -4.5t44.5 -23.5t42.5 -59l33 -91q18 -37 18 -76t-18 -72.5t-51 -53.5t-77 -20q-65 0 -111 50l-66 63q-42 43 -42 103z" glyph-name="Agrave" horiz-adv-x="1163" unicode="À"/>
<glyph d="M1149 181q0 -54 -24.5 -98t-74.5 -70t-122 -26q-64 0 -115 28t-67 86l-17 69h-295l-17 -69q-16 -58 -68.5 -86t-117.5 -28q-64 0 -113.5 25t-76.5 69.5t-27 100.5q0 40 17 88l351 938q22 58 74 86.5t127 28.5q73 0 125.5 -28t72.5 -85l352 -940q16 -44 16 -89zM650 489 l-67 270l-68 -270h135zM711 1452q-46 -50 -111 -50q-44 0 -77 20t-51 53.5t-18 72.5t18 76l33 91q20 40 42.5 59t44.5 23.5t52 4.5q43 0 83.5 -26.5t66 -69.5t25.5 -88q0 -60 -42 -103z" glyph-name="Aacute" horiz-adv-x="1163" unicode="Á"/>
<glyph d="M1149 181q0 -54 -24.5 -98t-74.5 -70t-122 -26q-64 0 -115 28t-67 86l-17 69h-295l-17 -69q-16 -58 -68.5 -86t-117.5 -28q-64 0 -113.5 25t-76.5 69.5t-27 100.5q0 40 17 88l351 938q22 58 74 86.5t127 28.5q73 0 125.5 -28t72.5 -85l352 -940q16 -44 16 -89zM650 489 l-67 270l-68 -270h135zM581 1446l-90 -61q-25 -19 -47 -25.5t-57 -6.5q-34 0 -66 21.5t-51.5 53t-19.5 58.5q0 43 21.5 72.5t75.5 70.5l119 80q21 16 53.5 28.5t61.5 12.5q24 0 57 -11.5t59 -29.5l119 -80q55 -41 76 -70t21 -73q0 -26 -22 -57.5t-54 -53.5t-61 -22 q-35 0 -56 6.5t-48 25.5z" glyph-name="Acircumflex" horiz-adv-x="1163" unicode="Â"/>
<glyph d="M1149 181q0 -54 -24.5 -98t-74.5 -70t-122 -26q-64 0 -115 28t-67 86l-17 69h-295l-17 -69q-16 -58 -68.5 -86t-117.5 -28q-64 0 -113.5 25t-76.5 69.5t-27 100.5q0 40 17 88l351 938q22 58 74 86.5t127 28.5q73 0 125.5 -28t72.5 -85l352 -940q16 -44 16 -89zM650 489 l-67 270l-68 -270h135zM870 1735q34 -19 52.5 -50t18.5 -66q0 -36 -8.5 -59t-36.5 -49q-51 -45 -97.5 -69.5t-109.5 -24.5q-43 0 -70 8t-56 22q-16 8 -27.5 12t-25.5 4q-8 0 -15 -4t-17 -12q-13 -11 -31 -21t-30 -15t-30 -5q-42 0 -76 19t-53 50.5t-19 66.5q0 34 10 56.5 t40 52.5q46 44 92 67.5t110 23.5q44 0 71.5 -7.5t54.5 -21.5q18 -8 29.5 -12t25.5 -4q7 0 15 6t16 13q16 16 27 22q25 16 63 16q43 0 77 -19z" glyph-name="Atilde" horiz-adv-x="1163" unicode="Ã"/>
<glyph d="M1149 181q0 -54 -24.5 -98t-74.5 -70t-122 -26q-64 0 -115 28t-67 86l-17 69h-295l-17 -69q-16 -58 -68.5 -86t-117.5 -28q-64 0 -113.5 25t-76.5 69.5t-27 100.5q0 40 17 88l351 938q22 58 74 86.5t127 28.5q73 0 125.5 -28t72.5 -85l352 -940q16 -44 16 -89zM650 489 l-67 270l-68 -270h135zM192 1645q22 37 59.5 59t81.5 22q43 0 80.5 -22t60 -59t22.5 -79q0 -44 -22.5 -81.5t-60 -59.5t-80.5 -22q-45 0 -82.5 22t-59 59.5t-21.5 81.5q0 42 22 79zM689.5 1645q22.5 37 60 59t81.5 22q43 0 80 -22t59.5 -59t22.5 -79q0 -44 -22 -81.5 t-59.5 -59.5t-80.5 -22q-45 0 -82.5 22t-59.5 59.5t-22 81.5q0 42 22.5 79z" glyph-name="Adieresis" horiz-adv-x="1163" unicode="Ä"/>
<glyph d="M1149 181q0 -54 -24.5 -98t-74.5 -70t-122 -26q-64 0 -115 28t-67 86l-17 69h-295l-17 -69q-16 -58 -68.5 -86t-117.5 -28q-64 0 -113.5 25t-76.5 69.5t-27 100.5q0 40 17 88l351 938q22 58 74 86.5t127 28.5q73 0 125.5 -28t72.5 -85l352 -940q16 -44 16 -89zM650 489 l-67 270l-68 -270h135zM478 1432.5q-48 28.5 -76 76.5t-28 103q0 57 28 105t76 76t104 28t103 -28t74.5 -76t27.5 -105q0 -55 -27.5 -103t-74.5 -76.5t-103 -28.5t-104 28.5zM600 1592.5q9 9.5 9 20.5q0 12 -8.5 20.5t-19.5 8.5t-20 -8.5t-9 -20.5q0 -11 9 -20.5t20 -9.5 q10 0 19 9.5z" glyph-name="Aring" horiz-adv-x="1163" unicode="Å"/>
<glyph d="M1653 332.5q48 -49.5 48 -146.5q0 -92 -48 -139t-141 -47h-505q-78 0 -121.5 39.5t-50.5 116.5h-385l-69 -83q-70 -87 -153 -87q-65 0 -136 56q-89 71 -89 151q0 65 57 134l790 887q41 96 172 96h490q93 0 141 -48.5t48 -141.5q0 -94 -48 -143t-141 -49h-266v-85h162 q94 0 142 -45.5t48 -134.5q0 -88 -48 -132.5t-142 -44.5h-162v-104h266q93 0 141 -49.5zM738 500l96 -1v116z" glyph-name="AE" horiz-adv-x="1757" unicode="Æ"/>
<glyph d="M941 440.5q46 -30.5 74 -80t28 -103.5q0 -44 -21 -85t-64 -74q-55 -41 -118 -71t-149 -43l-9 -20q76 -9 131 -52.5t55 -117.5q0 -75 -44 -137.5t-122 -84.5l-34 -10q-18 -6 -36 -6q-49 0 -82.5 38t-33.5 98q0 65 71 84l4 1q1 1 6 1h6q14 0 14 6q0 3 -2.5 5t-13.5 2 q-10 0 -17 -1q-45 -1 -67.5 17t-22.5 56q0 14 3 31l14 89q-136 16 -234.5 83t-150.5 177.5t-52 255.5v312q0 160 63 277.5t181.5 180.5t279.5 63q101 0 185.5 -25.5t173.5 -92.5q45 -33 66 -74.5t21 -86.5q0 -54 -28.5 -103.5t-74.5 -80t-97 -30.5q-38 0 -69 10.5t-68 32.5 q-22 13 -47.5 20t-67.5 7q-44 0 -69.5 -30t-25.5 -83v-278q0 -55 27 -86t74 -31q38 0 63.5 6t50.5 19q46 25 71 35t61 10q51 0 97 -30.5z" glyph-name="Ccedilla" horiz-adv-x="1087" unicode="Ç"/>
<glyph d="M302 0q-85 0 -129 46.5t-44 137.5v936q0 93 47.5 141.5t140.5 48.5h490q93 0 141 -48.5t48 -141.5q0 -94 -48 -143t-141 -49h-266v-85h162q94 0 142 -45.5t48 -134.5q0 -88 -48 -132.5t-142 -44.5h-162v-104h266q93 0 141 -49.5t48 -146.5q0 -92 -48 -139t-141 -47h-505z M327 1607q0 45 25.5 88t66 69.5t83.5 26.5q30 0 52 -4.5t44.5 -23.5t42.5 -59l33 -91q18 -37 18 -76t-18 -72.5t-51 -53.5t-77 -20q-65 0 -111 50l-66 63q-42 43 -42 103z" glyph-name="Egrave" horiz-adv-x="1052" unicode="È"/>
<glyph d="M302 0q-85 0 -129 46.5t-44 137.5v936q0 93 47.5 141.5t140.5 48.5h490q93 0 141 -48.5t48 -141.5q0 -94 -48 -143t-141 -49h-266v-85h162q94 0 142 -45.5t48 -134.5q0 -88 -48 -132.5t-142 -44.5h-162v-104h266q93 0 141 -49.5t48 -146.5q0 -92 -48 -139t-141 -47h-505z M687 1452q-46 -50 -111 -50q-44 0 -77 20t-51 53.5t-18 72.5t18 76l33 91q20 40 42.5 59t44.5 23.5t52 4.5q43 0 83.5 -26.5t66 -69.5t25.5 -88q0 -60 -42 -103z" glyph-name="Eacute" horiz-adv-x="1052" unicode="É"/>
<glyph d="M302 0q-85 0 -129 46.5t-44 137.5v936q0 93 47.5 141.5t140.5 48.5h490q93 0 141 -48.5t48 -141.5q0 -94 -48 -143t-141 -49h-266v-85h162q94 0 142 -45.5t48 -134.5q0 -88 -48 -132.5t-142 -44.5h-162v-104h266q93 0 141 -49.5t48 -146.5q0 -92 -48 -139t-141 -47h-505z M557 1446l-90 -61q-25 -19 -47 -25.5t-57 -6.5q-34 0 -66 21.5t-51.5 53t-19.5 58.5q0 43 21.5 72.5t75.5 70.5l119 80q21 16 53.5 28.5t61.5 12.5q24 0 57 -11.5t59 -29.5l119 -80q55 -41 76 -70t21 -73q0 -26 -22 -57.5t-54 -53.5t-61 -22q-35 0 -56 6.5t-48 25.5z" glyph-name="Ecircumflex" horiz-adv-x="1052" unicode="Ê"/>
<glyph d="M302 0q-85 0 -129 46.5t-44 137.5v936q0 93 47.5 141.5t140.5 48.5h490q93 0 141 -48.5t48 -141.5q0 -94 -48 -143t-141 -49h-266v-85h162q94 0 142 -45.5t48 -134.5q0 -88 -48 -132.5t-142 -44.5h-162v-104h266q93 0 141 -49.5t48 -146.5q0 -92 -48 -139t-141 -47h-505z M168 1645q22 37 59.5 59t81.5 22q43 0 80.5 -22t60 -59t22.5 -79q0 -44 -22.5 -81.5t-60 -59.5t-80.5 -22q-45 0 -82.5 22t-59 59.5t-21.5 81.5q0 42 22 79zM665.5 1645q22.5 37 60 59t81.5 22q43 0 80 -22t59.5 -59t22.5 -79q0 -44 -22 -81.5t-59.5 -59.5t-80.5 -22 q-45 0 -82.5 22t-59.5 59.5t-22 81.5q0 42 22.5 79z" glyph-name="Edieresis" horiz-adv-x="1052" unicode="Ë"/>
<glyph d="M551 194q0 -103 -54 -155t-158 -52t-157 52t-53 155v923q0 101 53.5 153.5t156.5 52.5q104 0 158 -52.5t54 -153.5v-923zM109 1607q0 45 25.5 88t66 69.5t83.5 26.5q30 0 52 -4.5t44.5 -23.5t42.5 -59l33 -91q18 -37 18 -76t-18 -72.5t-51 -53.5t-77 -20q-65 0 -111 50 l-66 63q-42 43 -42 103z" glyph-name="Igrave" horiz-adv-x="680" unicode="Ì"/>
<glyph d="M551 194q0 -103 -54 -155t-158 -52t-157 52t-53 155v923q0 101 53.5 153.5t156.5 52.5q104 0 158 -52.5t54 -153.5v-923zM469 1452q-46 -50 -111 -50q-44 0 -77 20t-51 53.5t-18 72.5t18 76l33 91q20 40 42.5 59t44.5 23.5t52 4.5q43 0 83.5 -26.5t66 -69.5t25.5 -88 q0 -60 -42 -103z" glyph-name="Iacute" horiz-adv-x="680" unicode="Í"/>
<glyph d="M551 194q0 -103 -54 -155t-158 -52t-157 52t-53 155v923q0 101 53.5 153.5t156.5 52.5q104 0 158 -52.5t54 -153.5v-923zM339 1446l-90 -61q-25 -19 -47 -25.5t-57 -6.5q-34 0 -66 21.5t-51.5 53t-19.5 58.5q0 43 21.5 72.5t75.5 70.5l119 80q21 16 53.5 28.5t61.5 12.5 q24 0 57 -11.5t59 -29.5l119 -80q55 -41 76 -70t21 -73q0 -26 -22 -57.5t-54 -53.5t-61 -22q-35 0 -56 6.5t-48 25.5z" glyph-name="Icircumflex" horiz-adv-x="680" unicode="Î"/>
<glyph d="M551 194q0 -103 -54 -155t-158 -52t-157 52t-53 155v923q0 101 53.5 153.5t156.5 52.5q104 0 158 -52.5t54 -153.5v-923zM-50 1645q22 37 59.5 59t81.5 22q43 0 80.5 -22t60 -59t22.5 -79q0 -44 -22.5 -81.5t-60 -59.5t-80.5 -22q-45 0 -82.5 22t-59 59.5t-21.5 81.5 q0 42 22 79zM447.5 1645q22.5 37 60 59t81.5 22q43 0 80 -22t59.5 -59t22.5 -79q0 -44 -22 -81.5t-59.5 -59.5t-80.5 -22q-45 0 -82.5 22t-59.5 59.5t-22 81.5q0 42 22.5 79z" glyph-name="Idieresis" horiz-adv-x="680" unicode="Ï"/>
<glyph d="M876 1247q129 -63 198 -181.5t69 -280.5v-275q0 -155 -67.5 -269t-193.5 -176.5t-298 -64.5h-13h-5h-226h-1q-104 0 -157 52t-53 155v307q-55 8 -83 46t-28 103q0 62 28 97.5t83 42.5v299q0 103 53 155.5t157 52.5h1h230h1q176 0 305 -63zM721 783q0 48 -40 76t-110 28 h-1h-19v-84q57 -7 86.5 -42.5t29.5 -97.5q0 -66 -29.5 -103.5t-86.5 -45.5v-91h19h1q70 0 110 25t40 69v266z" glyph-name="Eth" horiz-adv-x="1217" unicode="Ð"/>
<glyph d="M1178.5 1266q52.5 -54 52.5 -158v-951q0 -86 -51 -131.5t-131 -45.5q-122 0 -185 85l-313 426v-298q0 -104 -54 -158.5t-158 -54.5q-103 0 -156.5 54t-53.5 159v933q0 55 26.5 99.5t73.5 69.5t105 25q59 0 102 -20t75 -63l298 -399v270q0 105 54.5 158.5t160.5 53.5 q102 0 154.5 -54zM944 1735q34 -19 52.5 -50t18.5 -66q0 -36 -8.5 -59t-36.5 -49q-51 -45 -97.5 -69.5t-109.5 -24.5q-43 0 -70 8t-56 22q-16 8 -27.5 12t-25.5 4q-8 0 -15 -4t-17 -12q-13 -11 -31 -21t-30 -15t-30 -5q-42 0 -76 19t-53 50.5t-19 66.5q0 34 10 56.5t40 52.5 q46 44 92 67.5t110 23.5q44 0 71.5 -7.5t54.5 -21.5q18 -8 29.5 -12t25.5 -4q7 0 15 6t16 13q16 16 27 22q25 16 63 16q43 0 77 -19z" glyph-name="Ntilde" horiz-adv-x="1360" unicode="Ñ"/>
<glyph d="M74 825q0 156 64 270.5t183 175.5t282 61q164 0 284 -61t184.5 -175.5t64.5 -270.5v-345q0 -154 -64.5 -267.5t-184.5 -174t-284 -60.5q-163 0 -282 60.5t-183 174t-64 267.5v345zM497 500q0 -46 28.5 -72.5t77.5 -26.5q52 0 81.5 26.5t29.5 72.5v309q0 47 -29.5 73.5 t-81.5 26.5q-49 0 -77.5 -26.5t-28.5 -73.5v-309zM375 1607q0 45 25.5 88t66 69.5t83.5 26.5q30 0 52 -4.5t44.5 -23.5t42.5 -59l33 -91q18 -37 18 -76t-18 -72.5t-51 -53.5t-77 -20q-65 0 -111 50l-66 63q-42 43 -42 103z" glyph-name="Ograve" horiz-adv-x="1210" unicode="Ò"/>
<glyph d="M74 825q0 156 64 270.5t183 175.5t282 61q164 0 284 -61t184.5 -175.5t64.5 -270.5v-345q0 -154 -64.5 -267.5t-184.5 -174t-284 -60.5q-163 0 -282 60.5t-183 174t-64 267.5v345zM497 500q0 -46 28.5 -72.5t77.5 -26.5q52 0 81.5 26.5t29.5 72.5v309q0 47 -29.5 73.5 t-81.5 26.5q-49 0 -77.5 -26.5t-28.5 -73.5v-309zM735 1452q-46 -50 -111 -50q-44 0 -77 20t-51 53.5t-18 72.5t18 76l33 91q20 40 42.5 59t44.5 23.5t52 4.5q43 0 83.5 -26.5t66 -69.5t25.5 -88q0 -60 -42 -103z" glyph-name="Oacute" horiz-adv-x="1210" unicode="Ó"/>
<glyph d="M74 825q0 156 64 270.5t183 175.5t282 61q164 0 284 -61t184.5 -175.5t64.5 -270.5v-345q0 -154 -64.5 -267.5t-184.5 -174t-284 -60.5q-163 0 -282 60.5t-183 174t-64 267.5v345zM497 500q0 -46 28.5 -72.5t77.5 -26.5q52 0 81.5 26.5t29.5 72.5v309q0 47 -29.5 73.5 t-81.5 26.5q-49 0 -77.5 -26.5t-28.5 -73.5v-309zM605 1446l-90 -61q-25 -19 -47 -25.5t-57 -6.5q-34 0 -66 21.5t-51.5 53t-19.5 58.5q0 43 21.5 72.5t75.5 70.5l119 80q21 16 53.5 28.5t61.5 12.5q24 0 57 -11.5t59 -29.5l119 -80q55 -41 76 -70t21 -73q0 -26 -22 -57.5 t-54 -53.5t-61 -22q-35 0 -56 6.5t-48 25.5z" glyph-name="Ocircumflex" horiz-adv-x="1210" unicode="Ô"/>
<glyph d="M74 825q0 156 64 270.5t183 175.5t282 61q164 0 284 -61t184.5 -175.5t64.5 -270.5v-345q0 -154 -64.5 -267.5t-184.5 -174t-284 -60.5q-163 0 -282 60.5t-183 174t-64 267.5v345zM497 500q0 -46 28.5 -72.5t77.5 -26.5q52 0 81.5 26.5t29.5 72.5v309q0 47 -29.5 73.5 t-81.5 26.5q-49 0 -77.5 -26.5t-28.5 -73.5v-309zM894 1735q34 -19 52.5 -50t18.5 -66q0 -36 -8.5 -59t-36.5 -49q-51 -45 -97.5 -69.5t-109.5 -24.5q-43 0 -70 8t-56 22q-16 8 -27.5 12t-25.5 4q-8 0 -15 -4t-17 -12q-13 -11 -31 -21t-30 -15t-30 -5q-42 0 -76 19t-53 50.5 t-19 66.5q0 34 10 56.5t40 52.5q46 44 92 67.5t110 23.5q44 0 71.5 -7.5t54.5 -21.5q18 -8 29.5 -12t25.5 -4q7 0 15 6t16 13q16 16 27 22q25 16 63 16q43 0 77 -19z" glyph-name="Otilde" horiz-adv-x="1210" unicode="Õ"/>
<glyph d="M74 825q0 156 64 270.5t183 175.5t282 61q164 0 284 -61t184.5 -175.5t64.5 -270.5v-345q0 -154 -64.5 -267.5t-184.5 -174t-284 -60.5q-163 0 -282 60.5t-183 174t-64 267.5v345zM497 500q0 -46 28.5 -72.5t77.5 -26.5q52 0 81.5 26.5t29.5 72.5v309q0 47 -29.5 73.5 t-81.5 26.5q-49 0 -77.5 -26.5t-28.5 -73.5v-309zM216 1645q22 37 59.5 59t81.5 22q43 0 80.5 -22t60 -59t22.5 -79q0 -44 -22.5 -81.5t-60 -59.5t-80.5 -22q-45 0 -82.5 22t-59 59.5t-21.5 81.5q0 42 22 79zM713.5 1645q22.5 37 60 59t81.5 22q43 0 80 -22t59.5 -59 t22.5 -79q0 -44 -22 -81.5t-59.5 -59.5t-80.5 -22q-45 0 -82.5 22t-59.5 59.5t-22 81.5q0 42 22.5 79z" glyph-name="Odieresis" horiz-adv-x="1210" unicode="Ö"/>
<glyph d="M1044 199q0 -65 -66 -130q-64 -63 -131 -63q-65 0 -130 63l-143 141l-145 -144q-65 -65 -132 -65q-68 0 -134 66q-64 62 -64 127q0 63 62 130l149 148l-172 170q-62 64 -62 127q0 67 67 132q64 64 130 64q64 0 127 -63l172 -170l168 167q67 67 134 67q65 0 127 -62 q71 -69 71 -138q0 -62 -59 -121l-176 -175l141 -140q66 -64 66 -131z" glyph-name="multiply" horiz-adv-x="1103" unicode="×"/>
<glyph d="M1105.5 1019q30.5 -88 30.5 -194v-345q0 -154 -64.5 -267.5t-184.5 -174t-284 -60.5q-173 0 -301 70l-24 -38q-31 -48 -46.5 -64t-40.5 -16q-27 0 -47.5 18.5t-20.5 49.5q0 33 25 73l42 68q-57 64 -86.5 150t-29.5 191v345q0 156 64 270.5t183 175.5t282 61 q170 0 293 -66l27 43q30 47 49.5 63.5t48.5 16.5q30 0 45 -20t15 -52q0 -21 -6.5 -43.5t-17.5 -39.5l-40 -62q58 -65 88.5 -153zM497 628l167 268q-26 13 -61 13q-49 0 -77.5 -26.5t-28.5 -73.5v-181zM684.5 427.5q29.5 26.5 29.5 72.5v195l-176 -277q26 -17 65 -17 q52 0 81.5 26.5z" glyph-name="Oslash" horiz-adv-x="1210" unicode="Ø"/>
<glyph d="M331.5 38.5q-115.5 60.5 -177.5 174t-62 267.5v634q0 103 53.5 156t157.5 53q105 0 158 -53t53 -156v-614q0 -46 27 -72.5t74 -26.5q43 0 68 26.5t25 72.5v614q0 103 54 156t158 53t157 -53t53 -156v-634q0 -154 -63 -267.5t-181.5 -174t-280.5 -60.5q-158 0 -273.5 60.5 zM384 1607q0 45 25.5 88t66 69.5t83.5 26.5q30 0 52 -4.5t44.5 -23.5t42.5 -59l33 -91q18 -37 18 -76t-18 -72.5t-51 -53.5t-77 -20q-65 0 -111 50l-66 63q-42 43 -42 103z" glyph-name="Ugrave" horiz-adv-x="1222" unicode="Ù"/>
<glyph d="M331.5 38.5q-115.5 60.5 -177.5 174t-62 267.5v634q0 103 53.5 156t157.5 53q105 0 158 -53t53 -156v-614q0 -46 27 -72.5t74 -26.5q43 0 68 26.5t25 72.5v614q0 103 54 156t158 53t157 -53t53 -156v-634q0 -154 -63 -267.5t-181.5 -174t-280.5 -60.5q-158 0 -273.5 60.5 zM744 1452q-46 -50 -111 -50q-44 0 -77 20t-51 53.5t-18 72.5t18 76l33 91q20 40 42.5 59t44.5 23.5t52 4.5q43 0 83.5 -26.5t66 -69.5t25.5 -88q0 -60 -42 -103z" glyph-name="Uacute" horiz-adv-x="1222" unicode="Ú"/>
<glyph d="M331.5 38.5q-115.5 60.5 -177.5 174t-62 267.5v634q0 103 53.5 156t157.5 53q105 0 158 -53t53 -156v-614q0 -46 27 -72.5t74 -26.5q43 0 68 26.5t25 72.5v614q0 103 54 156t158 53t157 -53t53 -156v-634q0 -154 -63 -267.5t-181.5 -174t-280.5 -60.5q-158 0 -273.5 60.5 zM614 1446l-90 -61q-25 -19 -47 -25.5t-57 -6.5q-34 0 -66 21.5t-51.5 53t-19.5 58.5q0 43 21.5 72.5t75.5 70.5l119 80q21 16 53.5 28.5t61.5 12.5q24 0 57 -11.5t59 -29.5l119 -80q55 -41 76 -70t21 -73q0 -26 -22 -57.5t-54 -53.5t-61 -22q-35 0 -56 6.5t-48 25.5z" glyph-name="Ucircumflex" horiz-adv-x="1222" unicode="Û"/>
<glyph d="M331.5 38.5q-115.5 60.5 -177.5 174t-62 267.5v634q0 103 53.5 156t157.5 53q105 0 158 -53t53 -156v-614q0 -46 27 -72.5t74 -26.5q43 0 68 26.5t25 72.5v614q0 103 54 156t158 53t157 -53t53 -156v-634q0 -154 -63 -267.5t-181.5 -174t-280.5 -60.5q-158 0 -273.5 60.5 zM225 1645q22 37 59.5 59t81.5 22q43 0 80.5 -22t60 -59t22.5 -79q0 -44 -22.5 -81.5t-60 -59.5t-80.5 -22q-45 0 -82.5 22t-59 59.5t-21.5 81.5q0 42 22 79zM722.5 1645q22.5 37 60 59t81.5 22q43 0 80 -22t59.5 -59t22.5 -79q0 -44 -22 -81.5t-59.5 -59.5t-80.5 -22 q-45 0 -82.5 22t-59.5 59.5t-22 81.5q0 42 22.5 79z" glyph-name="Udieresis" horiz-adv-x="1222" unicode="Ü"/>
<glyph d="M1024 1294.5q47 -28.5 73.5 -76.5t26.5 -105q0 -69 -39 -133l-311 -487v-299q0 -103 -53.5 -155t-157.5 -52q-105 0 -158.5 52t-53.5 155v296l-312 490q-41 66 -41 135q0 57 26.5 104.5t73.5 75.5t106 28q51 0 97 -25.5t75 -78.5l186 -353l185 353q29 54 74 79t99 25 q57 0 104 -28.5zM691 1452q-46 -50 -111 -50q-44 0 -77 20t-51 53.5t-18 72.5t18 76l33 91q20 40 42.5 59t44.5 23.5t52 4.5q43 0 83.5 -26.5t66 -69.5t25.5 -88q0 -60 -42 -103z" glyph-name="Yacute" horiz-adv-x="1122" unicode="Ý"/>
<glyph d="M182.5 39.5q-53.5 52.5 -53.5 154.5v923q0 101 53.5 153.5t156.5 52.5q100 0 151.5 -44t51.5 -130v1h43q139 0 259 -53t194 -161.5t74 -265.5v-34q0 -148 -73.5 -250t-193 -152.5t-258.5 -50.5h-39v6q0 -100 -53 -151t-156 -51t-156.5 52.5zM593 603q6 0 35 -0.5t45.5 16 t16.5 50.5v16q0 28 -25 36t-74 8h-43v-126h45z" glyph-name="Thorn" horiz-adv-x="1186" unicode="Þ"/>
<glyph d="M708 -18.5q-32 2.5 -60 8.5q-66 19 -99.5 72.5t-33.5 123.5q0 49 20.5 92.5t57.5 70.5t84 27q25 0 37.5 -2t26.5 -9q41 -20 41 -38q1 1 2.5 6t1.5 12q0 32 -42 45q-86 27 -161 85t-75 147q0 73 17 127.5t41 85.5q28 37 44.5 62.5t16.5 37.5q0 18 -20 31.5t-46 13.5 q-29 0 -44.5 -11t-22 -36.5t-6.5 -74.5v-655q0 -106 -50 -161t-148 -55t-147.5 54.5t-49.5 161.5v694q0 130 58 235.5t167.5 166.5t259.5 61q116 0 219.5 -55t166 -144.5t62.5 -185.5q0 -66 -21.5 -121.5t-50.5 -90.5q-44 -48 -44 -86q0 -1 -0.5 -12t16.5 -31.5t50 -41.5 q83 -51 115.5 -113t32.5 -142q0 -108 -39.5 -189t-113.5 -125t-173 -44q-58 0 -90 2.5z" glyph-name="germandbls" horiz-adv-x="1186" unicode="ß"/>
<glyph d="M746.5 955q98.5 -52 149 -145t50.5 -214v-393q0 -53 -10.5 -83t-40.5 -52t-92 -43q-67 -23 -157.5 -35t-166.5 -12q-207 0 -317.5 80.5t-110.5 227.5v10q0 133 98.5 205.5t286.5 72.5q83 0 138 -7q-7 78 -88 78q-38 0 -98 -10l-38 -8q-32 -9 -59 -9q-41 0 -82.5 19 t-69.5 58.5t-28 95.5q0 55 33.5 98.5t106.5 78.5q27 13 100.5 26t157.5 13q139 0 237.5 -52zM574 273v90q-41 10 -89 10q-57 0 -57 -52v-3q0 -21 12.5 -36.5t41.5 -15.5q57 0 92 7zM283 1312q0 45 25.5 88t66 69.5t83.5 26.5q30 0 52 -4.5t44.5 -23.5t42.5 -59l33 -91 q18 -37 18 -76t-18 -72.5t-51 -53.5t-77 -20q-65 0 -111 50l-66 63q-42 43 -42 103z" glyph-name="agrave" horiz-adv-x="1022" unicode="à"/>
<glyph d="M746.5 955q98.5 -52 149 -145t50.5 -214v-393q0 -53 -10.5 -83t-40.5 -52t-92 -43q-67 -23 -157.5 -35t-166.5 -12q-207 0 -317.5 80.5t-110.5 227.5v10q0 133 98.5 205.5t286.5 72.5q83 0 138 -7q-7 78 -88 78q-38 0 -98 -10l-38 -8q-32 -9 -59 -9q-41 0 -82.5 19 t-69.5 58.5t-28 95.5q0 55 33.5 98.5t106.5 78.5q27 13 100.5 26t157.5 13q139 0 237.5 -52zM574 273v90q-41 10 -89 10q-57 0 -57 -52v-3q0 -21 12.5 -36.5t41.5 -15.5q57 0 92 7zM629 1136q-46 -50 -111 -50q-44 0 -77 20t-51 53.5t-18 72.5t18 76l33 91q20 40 42.5 59 t44.5 23.5t52 4.5q43 0 83.5 -26.5t66 -69.5t25.5 -88q0 -60 -42 -103z" glyph-name="aacute" horiz-adv-x="1022" unicode="á"/>
<glyph d="M746.5 955q98.5 -52 149 -145t50.5 -214v-393q0 -53 -10.5 -83t-40.5 -52t-92 -43q-67 -23 -157.5 -35t-166.5 -12q-207 0 -317.5 80.5t-110.5 227.5v10q0 133 98.5 205.5t286.5 72.5q83 0 138 -7q-7 78 -88 78q-38 0 -98 -10l-38 -8q-32 -9 -59 -9q-41 0 -82.5 19 t-69.5 58.5t-28 95.5q0 55 33.5 98.5t106.5 78.5q27 13 100.5 26t157.5 13q139 0 237.5 -52zM574 273v90q-41 10 -89 10q-57 0 -57 -52v-3q0 -21 12.5 -36.5t41.5 -15.5q57 0 92 7zM499 1141l-90 -61q-25 -19 -47 -25.5t-57 -6.5q-40 0 -71 19t-48 49.5t-17 65.5 q0 43 21.5 73t74.5 69l119 80q22 16 54 28.5t61 12.5q24 0 57.5 -11.5t58.5 -29.5l119 -80q55 -41 76 -70t21 -72q0 -33 -19 -64.5t-51 -50.5t-67 -19q-34 0 -56 6.5t-48 25.5z" glyph-name="acircumflex" horiz-adv-x="1022" unicode="â"/>
<glyph d="M746.5 955q98.5 -52 149 -145t50.5 -214v-393q0 -53 -10.5 -83t-40.5 -52t-92 -43q-67 -23 -157.5 -35t-166.5 -12q-207 0 -317.5 80.5t-110.5 227.5v10q0 133 98.5 205.5t286.5 72.5q83 0 138 -7q-7 78 -88 78q-38 0 -98 -10l-38 -8q-32 -9 -59 -9q-41 0 -82.5 19 t-69.5 58.5t-28 95.5q0 55 33.5 98.5t106.5 78.5q27 13 100.5 26t157.5 13q139 0 237.5 -52zM574 273v90q-41 10 -89 10q-57 0 -57 -52v-3q0 -21 12.5 -36.5t41.5 -15.5q57 0 92 7zM779 1394q34 -19 52.5 -50t18.5 -66q0 -36 -8.5 -59t-36.5 -49q-51 -45 -97.5 -69.5 t-109.5 -24.5q-43 0 -70 8t-56 22q-16 8 -27.5 12t-25.5 4q-8 0 -15 -4t-17 -12q-13 -11 -31 -21t-30 -15t-30 -5q-42 0 -76 19t-53 50.5t-19 66.5q0 34 10 56.5t40 52.5q46 44 92 67.5t110 23.5q44 0 71.5 -7.5t54.5 -21.5q18 -8 29.5 -12t25.5 -4q7 0 15 6t16 13 q16 16 27 22q25 16 63 16q43 0 77 -19z" glyph-name="atilde" horiz-adv-x="1022" unicode="ã"/>
<glyph d="M746.5 955q98.5 -52 149 -145t50.5 -214v-393q0 -53 -10.5 -83t-40.5 -52t-92 -43q-67 -23 -157.5 -35t-166.5 -12q-207 0 -317.5 80.5t-110.5 227.5v10q0 133 98.5 205.5t286.5 72.5q83 0 138 -7q-7 78 -88 78q-38 0 -98 -10l-38 -8q-32 -9 -59 -9q-41 0 -82.5 19 t-69.5 58.5t-28 95.5q0 55 33.5 98.5t106.5 78.5q27 13 100.5 26t157.5 13q139 0 237.5 -52zM574 273v90q-41 10 -89 10q-57 0 -57 -52v-3q0 -21 12.5 -36.5t41.5 -15.5q57 0 92 7zM110 1336q22 37 59.5 59t81.5 22q43 0 80.5 -22t60 -59t22.5 -79q0 -44 -22.5 -81.5 t-60 -59.5t-80.5 -22q-45 0 -82.5 22t-59 59.5t-21.5 81.5q0 42 22 79zM607.5 1336q22.5 37 60 59t81.5 22q43 0 80 -22t59.5 -59t22.5 -79q0 -44 -22 -81.5t-59.5 -59.5t-80.5 -22q-45 0 -82.5 22t-59.5 59.5t-22 81.5q0 42 22.5 79z" glyph-name="adieresis" horiz-adv-x="1022" unicode="ä"/>
<glyph d="M746.5 955q98.5 -52 149 -145t50.5 -214v-393q0 -53 -10.5 -83t-40.5 -52t-92 -43q-67 -23 -157.5 -35t-166.5 -12q-207 0 -317.5 80.5t-110.5 227.5v10q0 133 98.5 205.5t286.5 72.5q83 0 138 -7q-7 78 -88 78q-38 0 -98 -10l-38 -8q-32 -9 -59 -9q-41 0 -82.5 19 t-69.5 58.5t-28 95.5q0 55 33.5 98.5t106.5 78.5q27 13 100.5 26t157.5 13q139 0 237.5 -52zM574 273v90q-41 10 -89 10q-57 0 -57 -52v-3q0 -21 12.5 -36.5t41.5 -15.5q57 0 92 7zM396 1109.5q-48 28.5 -76 76.5t-28 103q0 57 28 105t76 76t104 28t103 -28t74.5 -76 t27.5 -105q0 -55 -27.5 -103t-74.5 -76.5t-103 -28.5t-104 28.5zM518 1269.5q9 9.5 9 20.5q0 12 -8.5 20.5t-19.5 8.5t-20 -8.5t-9 -20.5q0 -11 9 -20.5t20 -9.5q10 0 19 9.5z" glyph-name="aring" horiz-adv-x="1022" unicode="å"/>
<glyph d="M1254 943.5q103 -63.5 159 -167t56 -220.5v-50q0 -63 -37.5 -85.5t-121.5 -22.5h-364v-50q26 -41 73 -41q15 0 36.5 3t37.5 8q17 7 34 15q20 11 37 16.5t39 5.5q50 0 87.5 -25t57 -65t19.5 -84q0 -40 -16.5 -74.5t-48.5 -57.5q-102 -70 -285 -70q-117 0 -211 47l-3 -1 q-67 -23 -157.5 -35t-166.5 -12q-207 0 -317.5 80.5t-110.5 227.5v10q0 133 98.5 205.5t286.5 72.5q76 0 130 -6v8q0 15 1 23q-20 46 -81 46q-38 0 -98 -10l-38 -8q-32 -9 -59 -9q-41 0 -82.5 19t-69.5 58.5t-28 95.5q0 55 33.5 98.5t106.5 78.5q27 13 100.5 26t157.5 13 q155 0 260 -65q108 65 248 65q134 0 237 -63.5zM942 659q4 -27 4 -61h169q-1 40 -28 67t-70 27q-47 0 -75 -33zM574 273v46q-3 15 -7 45q-33 9 -82 9q-57 0 -57 -52v-3q0 -21 12.5 -36.5t41.5 -15.5q57 0 92 7z" glyph-name="ae" horiz-adv-x="1499" unicode="æ"/>
<glyph d="M807 364.5q35 -27.5 56.5 -72t21.5 -92.5q0 -43 -18.5 -81t-57.5 -67t-86.5 -47t-121.5 -24l-6 -14q76 -9 131 -52.5t55 -117.5q0 -75 -44 -137.5t-122 -84.5l-34 -10q-18 -6 -36 -6q-49 0 -82.5 38t-33.5 98q0 65 71 84l4 1q1 1 6 1h6q14 0 14 6q0 3 -2.5 5t-13.5 2 q-10 0 -17 -1q-45 -1 -67.5 17t-22.5 56q0 14 3 31l15 91q-109 21 -191.5 83.5t-127 154t-44.5 195.5v147q0 120 59 221.5t168.5 161.5t253.5 60q82 0 151.5 -20.5t114.5 -53.5q39 -29 57.5 -67t18.5 -81q0 -48 -21.5 -92.5t-57 -72t-74.5 -27.5q-39 1 -61 6t-55 18l-22 9 q-39 15 -71 15q-27 0 -47 -25.5t-20 -61.5v-128q0 -37 20 -61.5t47 -24.5q32 0 71 15q9 4 33 14t49 14.5t56 4.5q40 0 75 -27.5z" glyph-name="ccedilla" horiz-adv-x="934" unicode="ç"/>
<glyph d="M750 943.5q103 -63.5 159 -167t56 -220.5v-50q0 -63 -37.5 -85.5t-121.5 -22.5h-385q10 -39 32.5 -65t61.5 -26q15 0 36.5 3t37.5 8q17 7 34 15q20 11 37 16.5t39 5.5q50 0 87.5 -25t57 -65t19.5 -84q0 -40 -16.5 -74.5t-48.5 -57.5q-102 -70 -285 -70q-133 0 -236 60 t-159 156.5t-56 201.5v179q0 117 55.5 215.5t158.5 157t237 58.5t237 -63.5zM444 665q-26 -27 -28 -67h195q-1 40 -28 67t-70 27t-69 -27zM296 1312q0 45 25.5 88t66 69.5t83.5 26.5q30 0 52 -4.5t44.5 -23.5t42.5 -59l33 -91q18 -37 18 -76t-18 -72.5t-51 -53.5t-77 -20 q-65 0 -111 50l-66 63q-42 43 -42 103z" glyph-name="egrave" horiz-adv-x="995" unicode="è"/>
<glyph d="M750 943.5q103 -63.5 159 -167t56 -220.5v-50q0 -63 -37.5 -85.5t-121.5 -22.5h-385q10 -39 32.5 -65t61.5 -26q15 0 36.5 3t37.5 8q17 7 34 15q20 11 37 16.5t39 5.5q50 0 87.5 -25t57 -65t19.5 -84q0 -40 -16.5 -74.5t-48.5 -57.5q-102 -70 -285 -70q-133 0 -236 60 t-159 156.5t-56 201.5v179q0 117 55.5 215.5t158.5 157t237 58.5t237 -63.5zM444 665q-26 -27 -28 -67h195q-1 40 -28 67t-70 27t-69 -27zM642 1136q-46 -50 -111 -50q-44 0 -77 20t-51 53.5t-18 72.5t18 76l33 91q20 40 42.5 59t44.5 23.5t52 4.5q43 0 83.5 -26.5t66 -69.5 t25.5 -88q0 -60 -42 -103z" glyph-name="eacute" horiz-adv-x="995" unicode="é"/>
<glyph d="M750 943.5q103 -63.5 159 -167t56 -220.5v-50q0 -63 -37.5 -85.5t-121.5 -22.5h-385q10 -39 32.5 -65t61.5 -26q15 0 36.5 3t37.5 8q17 7 34 15q20 11 37 16.5t39 5.5q50 0 87.5 -25t57 -65t19.5 -84q0 -40 -16.5 -74.5t-48.5 -57.5q-102 -70 -285 -70q-133 0 -236 60 t-159 156.5t-56 201.5v179q0 117 55.5 215.5t158.5 157t237 58.5t237 -63.5zM444 665q-26 -27 -28 -67h195q-1 40 -28 67t-70 27t-69 -27zM512 1141l-90 -61q-25 -19 -47 -25.5t-57 -6.5q-40 0 -71 19t-48 49.5t-17 65.5q0 43 21.5 73t74.5 69l119 80q22 16 54 28.5t61 12.5 q24 0 57.5 -11.5t58.5 -29.5l119 -80q55 -41 76 -70t21 -72q0 -33 -19 -64.5t-51 -50.5t-67 -19q-34 0 -56 6.5t-48 25.5z" glyph-name="ecircumflex" horiz-adv-x="995" unicode="ê"/>
<glyph d="M750 943.5q103 -63.5 159 -167t56 -220.5v-50q0 -63 -37.5 -85.5t-121.5 -22.5h-385q10 -39 32.5 -65t61.5 -26q15 0 36.5 3t37.5 8q17 7 34 15q20 11 37 16.5t39 5.5q50 0 87.5 -25t57 -65t19.5 -84q0 -40 -16.5 -74.5t-48.5 -57.5q-102 -70 -285 -70q-133 0 -236 60 t-159 156.5t-56 201.5v179q0 117 55.5 215.5t158.5 157t237 58.5t237 -63.5zM444 665q-26 -27 -28 -67h195q-1 40 -28 67t-70 27t-69 -27zM123 1336q22 37 59.5 59t81.5 22q43 0 80.5 -22t60 -59t22.5 -79q0 -44 -22.5 -81.5t-60 -59.5t-80.5 -22q-45 0 -82.5 22t-59 59.5 t-21.5 81.5q0 42 22 79zM620.5 1336q22.5 37 60 59t81.5 22q43 0 80 -22t59.5 -59t22.5 -79q0 -44 -22 -81.5t-59.5 -59.5t-80.5 -22q-45 0 -82.5 22t-59.5 59.5t-22 81.5q0 42 22.5 79z" glyph-name="edieresis" horiz-adv-x="995" unicode="ë"/>
<glyph d="M553 787v-608q0 -95 -50 -143.5t-148 -48.5q-97 0 -146.5 48.5t-49.5 143.5v432q-74 7 -112 54t-38 130q0 92 45.5 138.5t135.5 46.5h169q89 0 137 -42q57 -48 57 -151zM116 1318q0 45 25.5 88t66 69.5t83.5 26.5q30 0 52 -4.5t44.5 -23.5t42.5 -59l33 -91q18 -37 18 -76 t-18 -72.5t-51 -53.5t-77 -20q-65 0 -111 50l-66 63q-42 43 -42 103z" glyph-name="igrave" horiz-adv-x="636" unicode="ì"/>
<glyph d="M553 787v-608q0 -95 -50 -143.5t-148 -48.5q-97 0 -146.5 48.5t-49.5 143.5v432q-74 7 -112 54t-38 130q0 92 45.5 138.5t135.5 46.5h169q89 0 137 -42q57 -48 57 -151zM462 1142q-46 -50 -111 -50q-44 0 -77 20t-51 53.5t-18 72.5t18 76l33 91q20 40 42.5 59t44.5 23.5 t52 4.5q43 0 83.5 -26.5t66 -69.5t25.5 -88q0 -60 -42 -103z" glyph-name="iacute" horiz-adv-x="636" unicode="í"/>
<glyph d="M553 787v-608q0 -95 -50 -143.5t-148 -48.5q-97 0 -146.5 48.5t-49.5 143.5v432q-74 7 -112 54t-38 130q0 92 45.5 138.5t135.5 46.5h169q89 0 137 -42q57 -48 57 -151zM332 1147l-90 -61q-25 -19 -47 -25.5t-57 -6.5q-40 0 -71 19t-48 49.5t-17 65.5q0 43 21.5 73 t74.5 69l119 80q22 16 54 28.5t61 12.5q24 0 57.5 -11.5t58.5 -29.5l119 -80q55 -41 76 -70t21 -72q0 -33 -19 -64.5t-51 -50.5t-67 -19q-34 0 -56 6.5t-48 25.5z" glyph-name="icircumflex" horiz-adv-x="636" unicode="î"/>
<glyph d="M553 787v-608q0 -95 -50 -143.5t-148 -48.5q-97 0 -146.5 48.5t-49.5 143.5v432q-74 7 -112 54t-38 130q0 92 45.5 138.5t135.5 46.5h169q89 0 137 -42q57 -48 57 -151zM-57 1342q22 37 59.5 59t81.5 22q43 0 80.5 -22t60 -59t22.5 -79q0 -44 -22.5 -81.5t-60 -59.5 t-80.5 -22q-45 0 -82.5 22t-59 59.5t-21.5 81.5q0 42 22 79zM440.5 1342q22.5 37 60 59t81.5 22q43 0 80 -22t59.5 -59t22.5 -79q0 -44 -22 -81.5t-59.5 -59.5t-80.5 -22q-45 0 -82.5 22t-59.5 59.5t-22 81.5q0 42 22.5 79z" glyph-name="idieresis" horiz-adv-x="636" unicode="ï"/>
<glyph d="M918 1082.5q55 -135.5 67 -260t12 -280.5v-137q0 -123 -62.5 -220.5t-169.5 -152t-235 -54.5q-130 0 -237 55t-169 152t-62 220v117q0 118 62 216.5t169.5 155.5t236.5 57q40 0 71 -4q-31 49 -70 83q-44 -41 -88 -41q-30 0 -52 18q-52 42 -52 88q0 16 4 29 q-77 39 -77 110q0 85 54 133.5t138 48.5q36 0 67 -8q11 -2 31 -8q46 43 90 43q37 0 69 -29q38 -34 38 -74q0 -16 -6 -34q116 -88 171 -223.5zM603 515q0 39 -20 59.5t-52 20.5q-33 0 -54 -20.5t-21 -59.5v-102q0 -39 20.5 -59t53.5 -20q32 0 52.5 20t20.5 59v102z" glyph-name="eth" horiz-adv-x="1059" unicode="ð"/>
<glyph d="M810 954q99 -57 153.5 -156t54.5 -219v-393q0 -98 -50.5 -148.5t-150.5 -50.5q-96 0 -144.5 50.5t-48.5 148.5v380q0 39 -24 64t-57 25q-32 0 -66 -14v-455q0 -98 -48.5 -148.5t-142.5 -50.5q-100 0 -151.5 50.5t-51.5 148.5v626q0 49 19.5 83t54.5 48q80 32 189.5 50 t235.5 18q129 0 228 -57zM830 1398q34 -19 52.5 -50t18.5 -66q0 -36 -8.5 -59t-36.5 -49q-51 -45 -97.5 -69.5t-109.5 -24.5q-43 0 -70 8t-56 22q-16 8 -27.5 12t-25.5 4q-8 0 -15 -4t-17 -12q-13 -11 -31 -21t-30 -15t-30 -5q-42 0 -76 19t-53 50.5t-19 66.5q0 34 10 56.5 t40 52.5q46 44 92 67.5t110 23.5q44 0 71.5 -7.5t54.5 -21.5q18 -8 29.5 -12t25.5 -4q7 0 15 6t16 13q16 16 27 22q25 16 63 16q43 0 77 -19z" glyph-name="ntilde" horiz-adv-x="1094" unicode="ñ"/>
<glyph d="M62 582q0 124 62 222t169 152.5t237 54.5q129 0 236 -54.5t169 -152.5t62 -222v-177q0 -123 -62.5 -220.5t-169.5 -152t-235 -54.5q-130 0 -237 55t-169 152t-62 220v177zM456 413q0 -39 20.5 -59t53.5 -20q32 0 52.5 20t20.5 59v162q0 39 -20 59.5t-52 20.5 q-33 0 -54 -20.5t-21 -59.5v-162zM313 1316q0 45 25.5 88t66 69.5t83.5 26.5q30 0 52 -4.5t44.5 -23.5t42.5 -59l33 -91q18 -37 18 -76t-18 -72.5t-51 -53.5t-77 -20q-65 0 -111 50l-66 63q-42 43 -42 103z" glyph-name="ograve" horiz-adv-x="1059" unicode="ò"/>
<glyph d="M62 582q0 124 62 222t169 152.5t237 54.5q129 0 236 -54.5t169 -152.5t62 -222v-177q0 -123 -62.5 -220.5t-169.5 -152t-235 -54.5q-130 0 -237 55t-169 152t-62 220v177zM456 413q0 -39 20.5 -59t53.5 -20q32 0 52.5 20t20.5 59v162q0 39 -20 59.5t-52 20.5 q-33 0 -54 -20.5t-21 -59.5v-162zM659 1140q-46 -50 -111 -50q-44 0 -77 20t-51 53.5t-18 72.5t18 76l33 91q20 40 42.5 59t44.5 23.5t52 4.5q43 0 83.5 -26.5t66 -69.5t25.5 -88q0 -60 -42 -103z" glyph-name="oacute" horiz-adv-x="1059" unicode="ó"/>
<glyph d="M62 582q0 124 62 222t169 152.5t237 54.5q129 0 236 -54.5t169 -152.5t62 -222v-177q0 -123 -62.5 -220.5t-169.5 -152t-235 -54.5q-130 0 -237 55t-169 152t-62 220v177zM456 413q0 -39 20.5 -59t53.5 -20q32 0 52.5 20t20.5 59v162q0 39 -20 59.5t-52 20.5 q-33 0 -54 -20.5t-21 -59.5v-162zM529 1145l-90 -61q-25 -19 -47 -25.5t-57 -6.5q-40 0 -71 19t-48 49.5t-17 65.5q0 43 21.5 73t74.5 69l119 80q22 16 54 28.5t61 12.5q24 0 57.5 -11.5t58.5 -29.5l119 -80q55 -41 76 -70t21 -72q0 -33 -19 -64.5t-51 -50.5t-67 -19 q-34 0 -56 6.5t-48 25.5z" glyph-name="ocircumflex" horiz-adv-x="1059" unicode="ô"/>
<glyph d="M62 582q0 124 62 222t169 152.5t237 54.5q129 0 236 -54.5t169 -152.5t62 -222v-177q0 -123 -62.5 -220.5t-169.5 -152t-235 -54.5q-130 0 -237 55t-169 152t-62 220v177zM456 413q0 -39 20.5 -59t53.5 -20q32 0 52.5 20t20.5 59v162q0 39 -20 59.5t-52 20.5 q-33 0 -54 -20.5t-21 -59.5v-162zM809 1398q34 -19 52.5 -50t18.5 -66q0 -36 -8.5 -59t-36.5 -49q-51 -45 -97.5 -69.5t-109.5 -24.5q-43 0 -70 8t-56 22q-16 8 -27.5 12t-25.5 4q-8 0 -15 -4t-17 -12q-13 -11 -31 -21t-30 -15t-30 -5q-42 0 -76 19t-53 50.5t-19 66.5 q0 34 10 56.5t40 52.5q46 44 92 67.5t110 23.5q44 0 71.5 -7.5t54.5 -21.5q18 -8 29.5 -12t25.5 -4q7 0 15 6t16 13q16 16 27 22q25 16 63 16q43 0 77 -19z" glyph-name="otilde" horiz-adv-x="1059" unicode="õ"/>
<glyph d="M62 582q0 124 62 222t169 152.5t237 54.5q129 0 236 -54.5t169 -152.5t62 -222v-177q0 -123 -62.5 -220.5t-169.5 -152t-235 -54.5q-130 0 -237 55t-169 152t-62 220v177zM456 413q0 -39 20.5 -59t53.5 -20q32 0 52.5 20t20.5 59v162q0 39 -20 59.5t-52 20.5 q-33 0 -54 -20.5t-21 -59.5v-162zM140 1340q22 37 59.5 59t81.5 22q43 0 80.5 -22t60 -59t22.5 -79q0 -44 -22.5 -81.5t-60 -59.5t-80.5 -22q-45 0 -82.5 22t-59 59.5t-21.5 81.5q0 42 22 79zM637.5 1340q22.5 37 60 59t81.5 22q43 0 80 -22t59.5 -59t22.5 -79 q0 -44 -22 -81.5t-59.5 -59.5t-80.5 -22q-45 0 -82.5 22t-59.5 59.5t-22 81.5q0 42 22.5 79z" glyph-name="odieresis" horiz-adv-x="1059" unicode="ö"/>
<glyph d="M748 351.5q-47 -47.5 -140 -47.5h-88q41 -26 65.5 -69t24.5 -91q0 -50 -26 -93.5t-69 -69.5t-93 -26t-94 26t-70 69.5t-26 93.5q0 49 25 91.5t66 68.5h-85q-94 0 -141.5 47.5t-47.5 140.5t47.5 140.5t141.5 47.5h64q-32 27 -50.5 65t-18.5 80q0 50 25.5 93.5t69 69 t94.5 25.5q50 0 93.5 -25.5t69.5 -69t26 -93.5q0 -42 -18.5 -80t-50.5 -65h66q93 0 140 -47.5t47 -140.5t-47 -140.5z" glyph-name="divide" horiz-adv-x="850" unicode="÷"/>
<glyph d="M997 582v-177q0 -123 -62.5 -220.5t-169.5 -152t-235 -54.5q-82 0 -157 23q-32 -47 -64.5 -73t-70.5 -27q-73 0 -113 32t-40 83q0 43 28 87l33 50q-41 53 -62.5 117t-21.5 135v177q0 124 62 222t169 152.5t237 54.5q85 0 160 -24q33 50 67.5 76.5t75.5 26.5 q68 0 108 -35.5t40 -88.5q0 -44 -28 -88l-34 -51q78 -108 78 -245zM456 413q0 -39 20.5 -59t53.5 -20q32 0 52.5 20t20.5 59v162q0 39 -20 59.5t-52 20.5q-33 0 -54 -20.5t-21 -59.5v-162z" glyph-name="oslash" horiz-adv-x="1059" unicode="ø"/>
<glyph d="M278.5 35q-97.5 57 -150 159.5t-52.5 235.5v373q0 99 50.5 149t150.5 50q95 0 144 -50t49 -149v-374q0 -42 21 -68.5t53 -26.5q41 0 73 14v455q0 99 48 149t143 50q101 0 152 -50t51 -149v-626q0 -48 -20 -82t-55 -48q-81 -33 -192.5 -51t-238.5 -18q-129 0 -226.5 57z M327 1316q0 45 25.5 88t66 69.5t83.5 26.5q30 0 52 -4.5t44.5 -23.5t42.5 -59l33 -91q18 -37 18 -76t-18 -72.5t-51 -53.5t-77 -20q-65 0 -111 50l-66 63q-42 43 -42 103z" glyph-name="ugrave" horiz-adv-x="1094" unicode="ù"/>
<glyph d="M278.5 35q-97.5 57 -150 159.5t-52.5 235.5v373q0 99 50.5 149t150.5 50q95 0 144 -50t49 -149v-374q0 -42 21 -68.5t53 -26.5q41 0 73 14v455q0 99 48 149t143 50q101 0 152 -50t51 -149v-626q0 -48 -20 -82t-55 -48q-81 -33 -192.5 -51t-238.5 -18q-129 0 -226.5 57z M673 1140q-46 -50 -111 -50q-44 0 -77 20t-51 53.5t-18 72.5t18 76l33 91q20 40 42.5 59t44.5 23.5t52 4.5q43 0 83.5 -26.5t66 -69.5t25.5 -88q0 -60 -42 -103z" glyph-name="uacute" horiz-adv-x="1094" unicode="ú"/>
<glyph d="M278.5 35q-97.5 57 -150 159.5t-52.5 235.5v373q0 99 50.5 149t150.5 50q95 0 144 -50t49 -149v-374q0 -42 21 -68.5t53 -26.5q41 0 73 14v455q0 99 48 149t143 50q101 0 152 -50t51 -149v-626q0 -48 -20 -82t-55 -48q-81 -33 -192.5 -51t-238.5 -18q-129 0 -226.5 57z M543 1145l-90 -61q-25 -19 -47 -25.5t-57 -6.5q-40 0 -71 19t-48 49.5t-17 65.5q0 43 21.5 73t74.5 69l119 80q22 16 54 28.5t61 12.5q24 0 57.5 -11.5t58.5 -29.5l119 -80q55 -41 76 -70t21 -72q0 -33 -19 -64.5t-51 -50.5t-67 -19q-34 0 -56 6.5t-48 25.5z" glyph-name="ucircumflex" horiz-adv-x="1094" unicode="û"/>
<glyph d="M278.5 35q-97.5 57 -150 159.5t-52.5 235.5v373q0 99 50.5 149t150.5 50q95 0 144 -50t49 -149v-374q0 -42 21 -68.5t53 -26.5q41 0 73 14v455q0 99 48 149t143 50q101 0 152 -50t51 -149v-626q0 -48 -20 -82t-55 -48q-81 -33 -192.5 -51t-238.5 -18q-129 0 -226.5 57z M154 1340q22 37 59.5 59t81.5 22q43 0 80.5 -22t60 -59t22.5 -79q0 -44 -22.5 -81.5t-60 -59.5t-80.5 -22q-45 0 -82.5 22t-59 59.5t-21.5 81.5q0 42 22 79zM651.5 1340q22.5 37 60 59t81.5 22q43 0 80 -22t59.5 -59t22.5 -79q0 -44 -22 -81.5t-59.5 -59.5t-80.5 -22 q-45 0 -82.5 22t-59.5 59.5t-22 81.5q0 42 22.5 79z" glyph-name="udieresis" horiz-adv-x="1094" unicode="ü"/>
<glyph d="M1012 543v-475q0 -128 -52.5 -224.5t-144 -149t-206.5 -52.5q-102 0 -147 8q-95 17 -142 60.5t-47 117.5q0 87 38.5 126t116.5 39q24 0 51 -3q42 -5 58 -4.5t19 0.5q40 0 62.5 19t27.5 52q-71 -19 -141 -19q-130 0 -227 52.5t-149.5 150t-52.5 229.5v333q0 99 50.5 149 t150.5 50q95 0 144 -50t49 -149v-374q0 -42 21 -68.5t53 -26.5q23 0 35.5 2.5t37.5 11.5v455q0 99 48 149t143 50q101 0 152 -50t51 -149v-260h1zM687 1140q-46 -50 -111 -50q-44 0 -77 20t-51 53.5t-18 72.5t18 76l33 91q20 40 42.5 59t44.5 23.5t52 4.5q43 0 83.5 -26.5 t66 -69.5t25.5 -88q0 -60 -42 -103z" glyph-name="yacute" horiz-adv-x="1095" unicode="ý"/>
<glyph d="M824 954.5q97 -56.5 150.5 -155.5t53.5 -224v-158q0 -113 -59 -212t-166 -158t-242 -59q-24 0 -47 3.5t-57 15.5l29 -66v-107q0 -95 -49.5 -144t-146.5 -49t-147 49t-50 144v1319q0 91 47 137.5t140 46.5t140.5 -46.5t47.5 -137.5v-148q73 6 132 6q127 0 224 -56.5z M634 565q0 39 -21.5 61.5t-53.5 22.5q-27 0 -53 -7q-4 -1 -9.5 -2t-10.5 -1v-290q32 -15 73 -15q32 0 53.5 23.5t21.5 62.5v145z" glyph-name="thorn" horiz-adv-x="1090" unicode="þ"/>
<glyph d="M553 787v-608q0 -95 -50 -143.5t-148 -48.5q-97 0 -146.5 48.5t-49.5 143.5v432q-74 7 -112 54t-38 130q0 92 45.5 138.5t135.5 46.5h169q89 0 137 -42q57 -48 57 -151z" glyph-name="dotlessi" horiz-adv-x="636" unicode="ı"/>
<glyph d="M553 787v-789q0 -107 -42 -186.5t-125.5 -123.5t-204.5 -44q-29 0 -51.5 3.5t-59.5 12.5q-71 17 -112.5 55.5t-41.5 111.5q0 76 39 118.5t101 42.5q18 0 28 -2q30 -5 42 -5q13 0 23 10.5t10 38.5v581q-74 7 -112 54t-38 130q0 92 45.5 138.5t135.5 46.5h169q89 0 137 -42 q57 -48 57 -151z" glyph-name="uni0237" horiz-adv-x="636" unicode="ȷ"/>
<glyph d="M-460 1308q0 45 25.5 88t66 69.5t83.5 26.5q30 0 52 -4.5t44.5 -23.5t42.5 -59l33 -91q18 -37 18 -76t-18 -72.5t-51 -53.5t-77 -20q-65 0 -111 50l-66 63q-42 43 -42 103z" glyph-name="gravecomb" unicode="̀"/>
<glyph d="M-103 1142q-46 -50 -111 -50q-44 0 -77 20t-51 53.5t-18 72.5t18 76l33 91q20 40 42.5 59t44.5 23.5t52 4.5q43 0 83.5 -26.5t66 -69.5t25.5 -88q0 -60 -42 -103z" glyph-name="acutecomb" unicode="́"/>
<glyph d="M-388 1143l-90 -61q-25 -19 -47 -25.5t-57 -6.5q-40 0 -71 19t-48 49.5t-17 65.5q0 43 21.5 73t74.5 69l119 80q22 16 54 28.5t61 12.5q24 0 57.5 -11.5t58.5 -29.5l119 -80q55 -41 76 -70t21 -72q0 -33 -19 -64.5t-51 -50.5t-67 -19q-34 0 -56 6.5t-48 25.5z" glyph-name="uni0302" unicode="̂"/>
<glyph d="M-53 1390q34 -19 52.5 -50t18.5 -66q0 -36 -8.5 -59t-36.5 -49q-51 -45 -97.5 -69.5t-109.5 -24.5q-43 0 -70 8t-56 22q-16 8 -27.5 12t-25.5 4q-8 0 -15 -4t-17 -12q-13 -11 -31 -21t-30 -15t-30 -5q-42 0 -76 19t-53 50.5t-19 66.5q0 34 10 56.5t40 52.5q46 44 92 67.5 t110 23.5q44 0 71.5 -7.5t54.5 -21.5q18 -8 29.5 -12t25.5 -4q7 0 15 6t16 13q16 16 27 22q25 16 63 16q43 0 77 -19z" glyph-name="tildecomb" unicode="̃"/>
<glyph d="M-262 1387q73 0 110 -36t37 -106q0 -74 -37 -112.5t-110 -38.5h-269q-70 0 -106.5 38.5t-36.5 112.5q0 70 36.5 106t106.5 36h269z" glyph-name="uni0304" unicode="̄"/>
<glyph d="M-606 1102.5q-43 25.5 -69 68.5t-26 93q0 49 26 91.5t69 68t92 25.5t91.5 -25.5t67.5 -68t25 -91.5q0 -50 -25 -93t-67.5 -68.5t-91.5 -25.5t-92 25.5z" glyph-name="uni0307" unicode="̇"/>
<glyph d="M-783 1337q22 37 59.5 59t81.5 22q43 0 80.5 -22t60 -59t22.5 -79q0 -44 -22.5 -81.5t-60 -59.5t-80.5 -22q-45 0 -82.5 22t-59 59.5t-21.5 81.5q0 42 22 79zM-285.5 1337q22.5 37 60 59t81.5 22q43 0 80 -22t59.5 -59t22.5 -79q0 -44 -22 -81.5t-59.5 -59.5t-80.5 -22 q-45 0 -82.5 22t-59.5 59.5t-22 81.5q0 42 22.5 79z" glyph-name="uni0308" unicode="̈"/>
<glyph d="M-344 1105.5q-48 28.5 -76 76.5t-28 103q0 57 28 105t76 76t104 28t103 -28t74.5 -76t27.5 -105q0 -55 -27.5 -103t-74.5 -76.5t-103 -28.5t-104 28.5zM-222 1265.5q9 9.5 9 20.5q0 12 -8.5 20.5t-19.5 8.5t-20 -8.5t-9 -20.5q0 -11 9 -20.5t20 -9.5q10 0 19 9.5z" glyph-name="uni030A" unicode="̊"/>
<glyph d="M-277 25h190l-26 -60q76 -9 131 -52.5t55 -117.5q0 -75 -44 -137.5t-122 -84.5l-34 -10q-18 -6 -36 -6q-49 0 -82.5 38t-33.5 98q0 65 71 84l4 1q1 1 6 1h6q14 0 14 6q0 3 -2.5 5t-13.5 2q-10 0 -17 -1q-45 -1 -67.5 17t-22.5 56q0 14 3 31z" glyph-name="uni0327" unicode="̧"/>
<glyph d="M953.5 952q48.5 -48 48.5 -142v-568q0 -81 -28 -140t-105 -86q-45 -16 -127.5 -26.5t-157.5 -10.5q-73 0 -126 36v-176q0 -92 -46.5 -138.5t-138.5 -46.5q-94 0 -142 49.5t-48 145.5v576l247 1v7l-247 -8v385q0 94 48.5 142t144.5 48q89 0 135.5 -48t46.5 -142v-374 q0 -49 23 -72t60 -23q11 0 29 -2l24 -1q18 0 33 5v467q0 94 46.5 142t137.5 48q94 0 142.5 -48z" glyph-name="uni03BC" horiz-adv-x="1085" unicode="μ"/>
<glyph d="M344 105q-28 -63 -58 -90.5t-78 -27.5q-77 0 -121.5 37t-44.5 99q0 41 23 92l461 995q22 46 58.5 72.5t84.5 27.5q79 0 117 -34.5t38 -93.5q0 -54 -29 -120z" glyph-name="fraction" horiz-adv-x="873" unicode="⁄"/>
<glyph d="M362 519q28 -32 28 -80l-1 -549q0 -118 -112 -118q-59 0 -89.5 30t-30.5 88v344l21 19q-8 -7 -19.5 -9t-30.5 -2q-32 0 -56 17t-37 43.5t-13 54.5q2 31 16.5 58t42.5 44l120 69q25 15 37.5 18t38.5 5q57 0 85 -32z" glyph-name="uni2081" horiz-adv-x="519" unicode="₁"/>
<glyph d="M104.5 -186q-34.5 36 -34.5 85q0 21 10 43t25 40l228 257q22 24 29.5 36.5t7.5 30.5v-2q0 8 -1.5 11.5t-9.5 6t-27 2.5q-35 0 -60 -13q-7 -4 -20 -12t-25.5 -13t-26.5 -5q-35 0 -63 15.5t-43.5 40.5t-15.5 53q0 36 14 60.5t40 43.5q29 21 85.5 41.5t132.5 20.5 q75 0 132.5 -30.5t89 -84t31.5 -120.5v-23q0 -98 -93 -195l-88 -91h74q58 0 88.5 -29.5t30.5 -85.5q0 -58 -30.5 -88.5t-88.5 -30.5h-308q-49 0 -83.5 36z" glyph-name="uni2082" horiz-adv-x="653" unicode="₂"/>
<glyph d="M585.5 198.5q47.5 -56.5 47.5 -157.5v-7q0 -79 -37.5 -139.5t-102.5 -94t-144 -33.5q-78 0 -137 28q-61 29 -89.5 60t-28.5 77q0 26 12.5 53t38.5 45t64 18q14 0 31.5 -6t44.5 -21q50 -28 76 -28q17 0 28 11.5t11 36.5q0 13 -9 20.5t-35 7.5h-73q-47 0 -79.5 32.5 t-32.5 79.5q0 22 8.5 44t25.5 34l85 60h-73q-57 0 -87 27.5t-30 80.5q0 57 30 87t87 30h268q60 0 89.5 -28.5t29.5 -78.5q0 -34 -15 -61.5t-42 -45.5l-97 -68q88 -7 135.5 -63.5z" glyph-name="uni2083" horiz-adv-x="695" unicode="₃"/>
<glyph d="M104.5 14q-34.5 36 -34.5 85q0 21 10 43t25 40l228 257q22 24 29.5 36.5t7.5 30.5v-2q0 8 -1.5 11.5t-9.5 6t-27 2.5q-35 0 -60 -13q-7 -4 -20 -12t-25.5 -13t-26.5 -5q-35 0 -63 15.5t-43.5 40.5t-15.5 53q0 36 14 60.5t40 43.5q29 21 85.5 41.5t132.5 20.5 q75 0 132.5 -30.5t89 -84t31.5 -120.5v-23q0 -98 -93 -195l-88 -91h74q58 0 88.5 -29.5t30.5 -85.5q0 -58 -30.5 -88.5t-88.5 -30.5h-308q-49 0 -83.5 36z" glyph-name="two.dnom" horiz-adv-x="653"/>
<glyph d="M348 7.5q-30 29.5 -30 87.5v28h-169q-53 0 -85.5 33.5t-32.5 97.5q0 20 12 56l120 366q12 36 40.5 53.5t69.5 17.5q118 0 118 -91q0 -29 -12 -67l-75 -233h14v1q0 58 30 88t89 30q56 0 85 -30t29 -88v-1h-23q56 0 85 -29.5t29 -86.5q0 -58 -29 -87.5t-85 -29.5h23v-28 q0 -57 -29 -87t-85 -30q-59 0 -89 29.5z" glyph-name="four.dnom" horiz-adv-x="646"/>
<glyph d="M74 1022q0 86 38 156.5t103.5 111t145.5 40.5q82 0 148.5 -40.5t104.5 -111t38 -156.5v-176q0 -85 -38 -155t-104.5 -110t-148.5 -40q-80 0 -146 40t-103.5 110t-37.5 155v176zM308 857q0 -35 10.5 -58.5t42.5 -23.5q36 0 47 24t11 58v156q0 38 -12.5 60.5t-45.5 22.5 q-28 0 -40.5 -21t-12.5 -62v-156z" glyph-name="zero.numr" horiz-adv-x="726"/>
<glyph d="M362 1293q28 -32 28 -80l-1 -549q0 -118 -112 -118q-59 0 -89.5 30t-30.5 88v344l21 19q-8 -7 -19.5 -9t-30.5 -2q-32 0 -56 17t-37 43.5t-13 54.5q2 31 16.5 58t42.5 44l120 69q25 15 37.5 18t38.5 5q57 0 85 -32z" glyph-name="one.numr" horiz-adv-x="519"/>
<glyph d="M585.5 972.5q47.5 -56.5 47.5 -157.5v-7q0 -79 -37.5 -139.5t-102.5 -94t-144 -33.5q-78 0 -137 28q-61 29 -89.5 60t-28.5 77q0 26 12.5 53t38.5 45t64 18q14 0 31.5 -6t44.5 -21q50 -28 76 -28q17 0 28 11.5t11 36.5q0 13 -9 20.5t-35 7.5h-73q-47 0 -79.5 32.5 t-32.5 79.5q0 22 8.5 44t25.5 34l85 60h-73q-57 0 -87 27.5t-30 80.5q0 57 30 87t87 30h268q60 0 89.5 -28.5t29.5 -78.5q0 -34 -15 -61.5t-42 -45.5l-97 -68q88 -7 135.5 -63.5z" glyph-name="three.numr" horiz-adv-x="695"/>
<glyph d="M-783 1645q22 37 59.5 59t81.5 22q43 0 80.5 -22t60 -59t22.5 -79q0 -44 -22.5 -81.5t-60 -59.5t-80.5 -22q-45 0 -82.5 22t-59 59.5t-21.5 81.5q0 42 22 79zM-285.5 1645q22.5 37 60 59t81.5 22q43 0 80 -22t59.5 -59t22.5 -79q0 -44 -22 -81.5t-59.5 -59.5t-80.5 -22 q-45 0 -82.5 22t-59.5 59.5t-22 81.5q0 42 22.5 79z" glyph-name="uni0308.case"/>
<glyph d="M-455 1607q0 45 25.5 88t66 69.5t83.5 26.5q30 0 52 -4.5t44.5 -23.5t42.5 -59l33 -91q18 -37 18 -76t-18 -72.5t-51 -53.5t-77 -20q-65 0 -111 50l-66 63q-42 43 -42 103z" glyph-name="gravecomb.case"/>
<glyph d="M-103 1452q-46 -50 -111 -50q-44 0 -77 20t-51 53.5t-18 72.5t18 76l33 91q20 40 42.5 59t44.5 23.5t52 4.5q43 0 83.5 -26.5t66 -69.5t25.5 -88q0 -60 -42 -103z" glyph-name="acutecomb.case"/>
<glyph d="M-388 1446l-90 -61q-25 -19 -47 -25.5t-57 -6.5q-34 0 -66 21.5t-51.5 53t-19.5 58.5q0 43 21.5 72.5t75.5 70.5l119 80q21 16 53.5 28.5t61.5 12.5q24 0 57 -11.5t59 -29.5l119 -80q55 -41 76 -70t21 -73q0 -26 -22 -57.5t-54 -53.5t-61 -22q-35 0 -56 6.5t-48 25.5z " glyph-name="uni0302.case"/>
<glyph d="M-344 1432.5q-48 28.5 -76 76.5t-28 103q0 57 28 105t76 76t104 28t103 -28t74.5 -76t27.5 -105q0 -55 -27.5 -103t-74.5 -76.5t-103 -28.5t-104 28.5zM-222 1592.5q9 9.5 9 20.5q0 12 -8.5 20.5t-19.5 8.5t-20 -8.5t-9 -20.5q0 -11 9 -20.5t20 -9.5q10 0 19 9.5z" glyph-name="uni030A.case"/>
<glyph d="M-53 1735q34 -19 52.5 -50t18.5 -66q0 -36 -8.5 -59t-36.5 -49q-51 -45 -97.5 -69.5t-109.5 -24.5q-43 0 -70 8t-56 22q-16 8 -27.5 12t-25.5 4q-8 0 -15 -4t-17 -12q-13 -11 -31 -21t-30 -15t-30 -5q-42 0 -76 19t-53 50.5t-19 66.5q0 34 10 56.5t40 52.5q46 44 92 67.5 t110 23.5q44 0 71.5 -7.5t54.5 -21.5q18 -8 29.5 -12t25.5 -4q7 0 15 6t16 13q16 16 27 22q25 16 63 16q43 0 77 -19z" glyph-name="tildecomb.case"/>
</font>
</defs>
</svg>
