<?xml version="1.0" encoding="UTF-8"?>
<!DOCTYPE svg  PUBLIC '-//W3C//DTD SVG 1.1//EN'  'http://www.w3.org/Graphics/SVG/1.1/DTD/svg11.dtd'>
<svg version="1.1" xmlns="http://www.w3.org/2000/svg">
<defs>
<font id="Iconic-Regular" horiz-adv-x="0">
<font-face font-family="Iconic" font-weight="400" ascent="1638" bbox="-615 -368 1621 1727" cap-height="1314" descent="-410" panose-1="2 15 5 6 2 2 0 0 0 4" underline-position="-154" underline-thickness="102" unicode-range="U+0020-2083" units-per-em="2048" x-height="960"/>
<missing-glyph/>
<glyph glyph-name="space" horiz-adv-x="461" unicode=" "/>
<glyph d="M235.5 336q-16.5 17 -16.5 50v862q0 32 17 49.5t48 17.5q65 0 65 -67v-862q0 -67 -65 -67q-32 0 -48.5 17zM220 15q-26 26 -26 63q0 38 26.5 64t63.5 26t63 -26t26 -64q0 -37 -25.5 -63t-63.5 -26t-64 26z" glyph-name="exclam" horiz-adv-x="567" unicode="!"/>
<glyph d="M216 972q0 -31 -16.5 -47.5t-46.5 -16.5q-29 0 -44.5 16.5t-15.5 47.5v273q-1 32 14.5 48.5t45.5 16.5t46.5 -16.5t16.5 -48.5v-273zM506 972q0 -31 -16.5 -47.5t-46.5 -16.5q-29 0 -44.5 16.5t-15.5 47.5v273q-2 65 60 65q63 0 63 -65v-273z" glyph-name="quotedbl" horiz-adv-x="599" unicode='"'/>
<glyph d="M877 806l-54 -321h147q32 0 48.5 -17t16.5 -50q0 -63 -60 -63h-174l-51 -300q-4 -29 -20.5 -44t-42.5 -15t-46.5 17t-20.5 49q0 10 1 16l47 277h-282l-51 -300q-4 -29 -20.5 -44t-41.5 -15q-27 0 -47.5 16.5t-20.5 49.5q0 10 1 16l47 277h-119q-32 0 -49 17t-17 50 q0 63 68 63h139l54 321h-148q-32 0 -49 15.5t-17 45.5q0 69 66 69h170l56 328q4 21 22.5 35.5t41.5 14.5q30 0 47 -17.5t17 -50.5q0 -8 -2 -24l-49 -286h282l56 328q3 21 22 35.5t42 14.5q30 0 47 -17.5t17 -49.5q0 -11 -3 -25l-48 -286h118q32 0 48.5 -16.5t16.5 -47.5 q0 -66 -60 -66h-145zM744 806h-282l-54 -321h282z" glyph-name="numbersign" horiz-adv-x="1155" unicode="#"/>
<glyph d="M821 176.5q-43 -75.5 -119.5 -125t-174.5 -62.5v-95q0 -28 -14.5 -42.5t-40.5 -14.5q-57 0 -57 57v92q-159 12 -310 114q-32 21 -32 53q0 27 19.5 48.5t41.5 21.5q11 0 19.5 -2.5t26.5 -13.5q59 -38 128.5 -65.5t156.5 -27.5q76 0 137.5 30t96.5 82t35 114 q0 73 -35.5 124t-90 84.5t-154.5 81.5l-19 9q-102 47 -169.5 88t-117 106.5t-49.5 154.5q0 97 43.5 170t115.5 115t157 51v77q0 28 15 42.5t43 14.5q26 0 40 -14.5t14 -42.5v-77q76 -8 143.5 -36.5t137.5 -83.5q23 -17 23 -46q0 -26 -18 -46.5t-44 -20.5q-11 0 -21 4.5 t-28 15.5q-64 48 -124 67.5t-134 19.5q-58 0 -111.5 -23.5t-87.5 -70.5t-34 -113q0 -52 32 -92t77 -66.5t113 -57.5l48 -23l30 -15q115 -57 180.5 -101t110 -116t44.5 -179q0 -89 -43 -164.5z" glyph-name="dollar" horiz-adv-x="948" unicode="$"/>
<glyph d="M107 1084q0 66 28 119t77 83.5t109 30.5q61 0 110 -30.5t77.5 -83.5t28.5 -119v-234q0 -65 -28.5 -118t-77.5 -83t-110 -30q-60 0 -109 30t-77 83t-28 118v234zM196 855q0 -64 34.5 -105.5t90.5 -41.5q57 0 92.5 41.5t35.5 105.5v226q0 66 -35.5 106.5t-92.5 40.5 q-56 0 -90.5 -40.5t-34.5 -106.5v-226zM427 37q-19 -41 -48 -38q-25 1 -39 13.5t-14 32.5q0 12 8 30l561 1201q8 16 21 25.5t29 9.5q26 0 38.5 -12t12.5 -32q0 -19 -9 -40zM789 446q0 66 28 119t77 83.5t109 30.5q61 0 110 -30.5t77.5 -83.5t28.5 -119v-234 q0 -65 -28.5 -118t-77.5 -83t-110 -30q-60 0 -109 30t-77 83t-28 118v234zM878 217q0 -64 34.5 -105.5t90.5 -41.5q57 0 92.5 41.5t35.5 105.5v226q0 66 -35.5 106.5t-92.5 40.5q-56 0 -90.5 -40.5t-34.5 -106.5v-226z" glyph-name="percent" horiz-adv-x="1319" unicode="%"/>
<glyph d="M1172 122.5q11 -16.5 11 -37.5q0 -29 -22 -47q-57 -32 -95 -43t-87 -11q-73 0 -127 28.5t-87 80.5q-100 -92 -233 -93h-69q-108 0 -190 38.5t-128.5 118.5t-46.5 199q0 109 47 193t135 125q-87 38 -134.5 117t-47.5 184q0 162 96.5 250.5t278.5 88.5h64q80 0 157.5 -30 t142.5 -79q40 -27 40 -63q0 -23 -19.5 -40.5t-41.5 -17.5q-10 0 -20 5q-60 43 -124 68.5t-137 25.5h-64q-111 0 -176 -56.5t-65 -159.5q0 -106 61.5 -165.5t166.5 -59.5l536 1q28 0 43.5 -14.5t15.5 -43.5q0 -28 -15.5 -43.5t-43.5 -15.5h-153v-340q0 -85 39 -133.5 t113 -48.5q26 0 51 6t68 27q12 5 21 5q6 0 10 -1q18 -2 29 -18.5zM642 149q41 17 82 53q-6 35 -6 73v336h-250q-110 0 -174 -65.5t-64 -179.5q0 -110 65 -172t176 -62h72q58 0 99 17z" glyph-name="ampersand" horiz-adv-x="1191" unicode="&amp;"/>
<glyph d="M215 976q0 -32 -15.5 -49t-45.5 -17t-45.5 17t-15.5 49v273q0 65 61 65t61 -65v-273z" glyph-name="quotesingle" horiz-adv-x="309" unicode="'"/>
<glyph d="M337 -255q-109 83 -156 241.5t-47 425.5v258q0 267 48 427.5t157 240.5q30 28 59 28q31 0 49.5 -19.5t18.5 -38.5q0 -28 -26 -57q-67 -48 -105 -120.5t-54.5 -182.5t-16.5 -280v-253q0 -168 17.5 -277t55.5 -180.5t103 -123.5q14 -15 19.5 -28t5.5 -28q0 -19 -18 -39 t-46 -20q-36 0 -64 26z" glyph-name="parenleft" horiz-adv-x="572" unicode="("/>
<glyph d="M125 -261q-18 20 -18 39q0 14 6 27t19 29q66 52 104 123.5t55 180.5t17 277v253q0 170 -16.5 280t-54.5 182.5t-104 120.5q-27 29 -27 57q0 19 19 38.5t50 19.5q29 0 58 -28q110 -80 158 -240.5t48 -427.5v-258q0 -267 -47.5 -425.5t-156.5 -241.5q-27 -26 -63 -26 q-29 0 -47 20z" glyph-name="parenright" horiz-adv-x="573" unicode=")"/>
<glyph d="M317 827q0 81 8 185q-65 -46 -149 -99q-19 -13 -34 -13q-18 0 -30 18q-10 14 -10 27q0 22 28 37q57 34 164 88q-102 52 -159 85q-34 15 -34 38q0 12 11 28q12 18 30 18q16 0 38 -16q67 -42 145 -96q-7 91 -7 185q0 46 41 46t38 -50q0 -72 -7 -182q54 39 151 99 q18 12 33 12q18 0 30 -17q10 -17 10 -27q0 -22 -31 -38q-76 -43 -161 -85q78 -38 163 -86q27 -15 27 -36q0 -15 -10 -29q-12 -17 -29 -17q-16 0 -33 13q-84 51 -150 99q7 -108 7 -180q5 -51 -38 -51q-40 0 -42 44z" glyph-name="asterisk" horiz-adv-x="708" unicode="*"/>
<glyph d="M782 531.5q17 -16.5 17 -47.5q0 -29 -17 -44.5t-49 -15.5h-261v-260q0 -33 -16 -50t-46 -17t-46 17t-16 50v260h-260q-32 0 -49 16t-17 45q0 31 17 47t49 16h260v260q0 32 16 49t46 17t46 -17t16 -49v-260h261q32 0 49 -16.5z" glyph-name="plus" horiz-adv-x="820" unicode="+"/>
<glyph d="M80 -260q-14 16 -14 40q0 5 2 17l96 314q5 22 24.5 35t41.5 13q25 0 44.5 -19.5t19.5 -45.5q0 -12 -6 -26l-116 -303q-18 -41 -53 -41q-25 0 -39 16z" glyph-name="comma" horiz-adv-x="380" unicode=","/>
<glyph d="M102.5 434q-17.5 16 -17.5 45q0 30 17.5 46t49.5 16h533q33 0 50 -16t17 -46q0 -61 -67 -61h-533q-32 0 -49.5 16z" glyph-name="hyphen" horiz-adv-x="841" unicode="-"/>
<glyph d="M139 15q-26 26 -26 63t26 63.5t63 26.5q38 0 64 -26t26 -64t-26 -63.5t-64 -25.5q-37 0 -63 26z" glyph-name="period" horiz-adv-x="395" unicode="."/>
<glyph d="M185 46q-7 -21 -25.5 -33.5t-40.5 -12.5q-27 0 -47 16.5t-20 42.5q0 10 3 20l382 1184q7 25 24.5 38t38.5 13q30 0 50.5 -16.5t20.5 -44.5q0 -12 -4 -24z" glyph-name="slash" horiz-adv-x="623" unicode="/"/>
<glyph d="M107 892q0 124 52 223.5t142.5 155.5t203.5 56t204.5 -56t144 -155.5t52.5 -223.5v-475q0 -122 -52.5 -221t-144 -155.5t-204.5 -56.5q-112 0 -203 56.5t-143 155.5t-52 221v475zM237 423q0 -89 34.5 -159.5t95.5 -109.5t138 -39q78 0 140 39t96.5 109.5t34.5 159.5v465 q0 91 -34.5 161t-96.5 108.5t-140 38.5q-77 0 -138 -38.5t-95.5 -108.5t-34.5 -161v-465z" glyph-name="zero" horiz-adv-x="1013" unicode="0"/>
<glyph d="M292 13q-17 17 -17 49v1077l-123 -80q-17 -6 -31 -6q-27 0 -42 19t-15 45q2 40 30 56l204 129q12 7 21.5 9.5t22.5 2.5q32 0 47.5 -14.5t15.5 -40.5v-1197q0 -32 -16 -49t-47 -17q-33 0 -50 17z" glyph-name="one" horiz-adv-x="599" unicode="1"/>
<glyph d="M69.5 19q-17.5 19 -17.5 48q0 28 16 47l477 544q68 79 105.5 152.5t37.5 148.5v18q0 58 -29.5 108.5t-82 81t-116.5 30.5q-93 0 -151.5 -37t-104.5 -92q-14 -13 -22.5 -18t-25.5 -5q-27 0 -46.5 14t-19.5 39q0 34 24 58q63 74 145.5 122.5t206.5 48.5q99 0 179.5 -45 t126.5 -122t46 -168v-37q0 -95 -43.5 -185t-122.5 -180l-405 -460h569q66 0 66 -63q0 -33 -16.5 -50t-49.5 -17h-701q-28 0 -45.5 19z" glyph-name="two" horiz-adv-x="939" unicode="2"/>
<glyph d="M666 811q87 -44 136.5 -128t49.5 -200v-84q0 -114 -55.5 -209t-152.5 -150.5t-216 -55.5q-75 0 -134 18.5t-98 43t-82 59.5q-30 16 -43.5 32t-13.5 41q0 23 16.5 44t43.5 21q10 0 18.5 -3.5t28.5 -16.5q45 -37 74 -57.5t80 -37.5t120 -17q79 0 144 39.5t102.5 106 t37.5 145.5v80q0 82 -38 141t-104.5 90t-149.5 31h-65q-25 0 -41.5 17t-16.5 43q-1 13 4 26.5t15 23.5l312 330h-489q-32 0 -49.5 15.5t-17.5 45.5q0 32 17.5 49t49.5 17h602q33 0 46.5 -16t13.5 -46q0 -34 -31 -62l-317 -332h3q113 0 200 -44z" glyph-name="three" horiz-adv-x="921" unicode="3"/>
<glyph d="M635 17q-17 17 -17 49v246h-510q-31 0 -49.5 18.5t-18.5 54.5q0 17 8 33l392 854q7 19 23.5 30t38.5 11q32 0 49 -14t17 -40q0 -15 -8 -37l-367 -780h425v198q0 32 17 49.5t49 17.5q31 0 48 -17.5t17 -49.5v-198h109q64 0 64 -65q0 -32 -16.5 -48.5t-47.5 -16.5h-109 v-246q0 -32 -16.5 -49t-47.5 -17q-33 0 -50 17z" glyph-name="four" horiz-adv-x="955" unicode="4"/>
<glyph d="M296.5 22q-86.5 38 -155.5 96q-35 23 -32 64q2 22 21 41t45 19q15 0 31 -9q6 -4 12 -8.5t12 -9.5q54 -44 115.5 -74t153.5 -30q83 0 149 39.5t102.5 108t36.5 153.5v40q0 133 -82.5 200.5t-235.5 67.5q-51 0 -99 -12.5t-121 -37.5l-55 -19q-28 -1 -46 17.5t-18 46.5 l-2 530q0 32 18 49t53 17h596q32 0 49 -17.5t17 -49.5t-17 -48t-49 -16h-534v-392q50 27 117.5 44.5t127.5 17.5q119 0 211.5 -43t146 -130.5t53.5 -217.5v-47q0 -123 -55 -221t-150.5 -152.5t-213.5 -54.5q-115 0 -201.5 38z" glyph-name="five" horiz-adv-x="988" unicode="5"/>
<glyph d="M692.5 842q88.5 -45 139.5 -127t51 -187v-175q0 -110 -51 -193.5t-139.5 -129.5t-197.5 -46t-197 46t-139.5 129.5t-51.5 193.5l1 147q0 18 1 27l-1 375q0 134 53 229.5t146.5 145t214.5 49.5q60 0 108 -7t106 -27q27 -9 36.5 -25t7.5 -43q-1 -24 -17.5 -40t-41.5 -15 q-75 19 -109.5 25t-84.5 6q-93 0 -159 -36t-99.5 -98t-33.5 -141v-139q53 48 120 74.5t142 26.5q107 0 195.5 -45zM753 516q0 72 -34 127t-93 85.5t-131 30.5t-130.5 -31t-92.5 -87t-34 -128v-144q0 -78 34 -136.5t92.5 -89.5t130.5 -31q73 0 131.5 31t92.5 89.5t34 136.5 v147z" glyph-name="six" horiz-adv-x="955" unicode="6"/>
<glyph d="M208.5 13q-17.5 14 -17.5 40q0 21 12 46l440 1081h-535q-32 0 -49.5 17t-17.5 48q0 32 17.5 49t49.5 17h651q26 0 43 -18.5t17 -44.5q0 -17 -9 -37l-493 -1170q-21 -42 -58 -42q-33 0 -50.5 14z" glyph-name="seven" horiz-adv-x="859" unicode="7"/>
<glyph d="M731 669q51 -47 82 -113t31 -145v-70q0 -97 -53 -178t-143.5 -128t-197.5 -47t-196.5 47t-142.5 127.5t-54 176.5v72q0 78 30.5 144t81.5 113t111 71q-65 35 -103 96t-39 138v62q0 83 41 150t112 104.5t157 37.5t157 -37.5t112 -104t41 -149.5v-64q-1 -76 -38 -136 t-101 -95q61 -25 112 -72zM252 980q0 -51 26.5 -93t71.5 -66.5t99 -24.5t99 24.5t71 67t26 93.5v55q0 51 -26.5 93t-71.5 66.5t-98 24.5q-55 0 -100 -24.5t-71 -67t-26 -94.5v-54zM712 426q0 68 -35 124t-95.5 88t-133.5 32q-72 0 -132 -32.5t-95 -88.5t-35 -125v-61 q1 -69 36.5 -125t96 -88t131.5 -32q72 0 132 32.5t95 89.5t35 127v59z" glyph-name="eight" horiz-adv-x="900" unicode="8"/>
<glyph d="M837 805q0 -18 -1 -27l1 -370q0 -133 -52.5 -227.5t-145 -143t-211.5 -48.5q-59 0 -106 7t-105 27q-27 9 -36.5 24.5t-7.5 42.5q1 23 17 39t41 15q76 -18 109.5 -24t82.5 -6q92 0 157 35t98.5 96.5t33.5 139.5v139q-52 -48 -119 -74.5t-141 -26.5q-106 0 -193 44.5 t-137.5 125t-50.5 184.5v174q0 108 50.5 191t138 128t195.5 45q107 0 194.5 -45t138 -128t50.5 -191zM708 935q0 77 -33 134.5t-91 88.5t-129 31q-72 0 -130.5 -31t-92 -88.5t-33.5 -134.5v-146q0 -71 33.5 -125.5t92 -84t130.5 -29.5q71 0 128.5 30.5t91 85.5t33.5 127v142 z" glyph-name="nine" horiz-adv-x="944" unicode="9"/>
<glyph d="M139 15q-26 26 -26 63t26 63.5t63 26.5q38 0 64 -26t26 -64t-26 -63.5t-64 -25.5q-37 0 -63 26zM139 835q-26 26 -26 63t26 63.5t63 26.5q38 0 64 -26t26 -64t-26 -63.5t-64 -25.5q-37 0 -63 26z" glyph-name="colon" horiz-adv-x="395" unicode=":"/>
<glyph d="M127 -260q-14 16 -14 40q0 5 2 17l96 314q5 22 24.5 35t41.5 13q25 0 44.5 -19.5t19.5 -45.5q0 -12 -6 -26l-116 -303q-18 -41 -53 -41q-25 0 -39 16zM211 836q-26 26 -26 63t26 63.5t63 26.5q38 0 64 -26t26 -64t-26 -63.5t-64 -25.5q-37 0 -63 26z" glyph-name="semicolon" horiz-adv-x="467" unicode=";"/>
<glyph d="M688 191q0 -15 -10 -32q-15 -30 -42 -30q-14 0 -29 9l-503 285q-38 22 -38 51q0 36 31 52l510 279q17 9 30 9q26 0 44 -29q10 -17 10 -32q0 -25 -30 -42l-451 -235l448 -244q30 -13 30 -41z" glyph-name="less" horiz-adv-x="786" unicode="&lt;"/>
<glyph d="M722 756q33 0 50 -16.5t17 -48.5q0 -59 -67 -59h-574q-33 0 -50 15.5t-17 44.5q0 64 67 64h574zM722 348q33 0 50 -16t17 -45q0 -31 -17 -47t-50 -16h-574q-67 0 -67 64q0 29 17 44.5t50 15.5h574z" glyph-name="equal" horiz-adv-x="866" unicode="="/>
<glyph d="M720 474q0 -29 -38 -51l-503 -285q-15 -9 -29 -9q-27 0 -42 30q-10 17 -10 32q0 28 30 41l448 244l-451 235q-30 17 -30 42q0 15 10 32q18 29 44 29q14 0 30 -9l510 -279q31 -16 31 -52z" glyph-name="greater" horiz-adv-x="786" unicode="&gt;"/>
<glyph d="M313 357q-16 14 -16 39q6 58 28 102t56.5 80.5t90.5 81.5l38 32q69 58 106.5 95t62.5 80t25 91v18q0 70 -35 119.5t-94.5 75t-132.5 25.5q-90 0 -154.5 -33t-125.5 -102q-18 -16 -27.5 -22t-23.5 -6q-26 0 -43 17t-17 44q0 12 5 25t15 24q157 183 375 183 q108 0 196.5 -41.5t140 -119t51.5 -180.5v-21q0 -69 -30 -126.5t-76 -104t-128 -116.5l-49 -42q-55 -47 -87 -90.5t-49 -103.5q-20 -38 -57 -38q-29 0 -45 14zM284.5 142q26.5 26 63.5 26t63 -26t26 -64q0 -37 -25.5 -63t-63.5 -26t-64 26t-26 63q0 38 26.5 64z" glyph-name="question" horiz-adv-x="889" unicode="?"/>
<glyph d="M805.5 1265.5q105.5 -60.5 165.5 -163t60 -223.5v-706q0 -57 -50 -57q-47 0 -47 38v87q-10 -29 -34 -60t-65 -53t-96 -22q-68 0 -127.5 36t-95.5 97.5t-36 133.5v216q0 72 37 133t100.5 96.5t139.5 35.5q88 0 159 -49v21q0 116 -42 199.5t-119 127t-181 43.5 q-91 0 -167.5 -43t-122 -121.5t-45.5 -180.5v-668q0 -91 44.5 -164.5t119.5 -115t163 -41.5q68 0 68 -63q0 -34 -19 -51t-55 -17q-123 0 -226.5 60.5t-163.5 163.5t-60 222v702q0 121 60.5 223.5t165.5 163t233 60.5q131 0 236.5 -60.5zM916 590q0 41 -21 76.5t-57.5 56.5 t-80.5 21q-45 0 -82.5 -21t-59 -56t-21.5 -77v-220q0 -41 22 -76t59 -56t82 -21q44 0 80.5 21t57.5 56t21 76v220z" glyph-name="at" horiz-adv-x="1135" unicode="@"/>
<glyph d="M1010 55q0 -25 -17.5 -42t-50.5 -17q-20 0 -35.5 8.5t-21.5 27.5l-108 329h-512l-108 -329q-5 -18 -21.5 -27t-36.5 -9q-29 0 -47.5 17t-18.5 43q0 16 5 28l421 1194q14 36 63 36q23 0 39 -9t23 -26l420 -1195q6 -15 6 -29zM736 487l-215 656l-215 -656h430z" glyph-name="A" horiz-adv-x="1042" unicode="A"/>
<glyph d="M995 393q0 -201 -95 -297t-305 -96h-335q-32 0 -49 16.5t-17 47.5v1182q0 65 66 65h297q186 0 274 -77t88 -240q0 -92 -39 -164t-124 -109q239 -66 239 -328zM325 759h241q111 0 166.5 58t55.5 160q0 109 -55 159t-174 50h-234v-427zM799 189.5q65 66.5 65 210.5 q0 68 -28 124t-87 90t-149 34h-275v-525h263q146 0 211 66.5z" glyph-name="B" horiz-adv-x="1091" unicode="B"/>
<glyph d="M719.5 15.5q-77.5 -31.5 -189.5 -31.5q-118 0 -214.5 58.5t-152.5 158t-56 217.5v473q0 119 55 219t151.5 158t216.5 58q106 0 183.5 -29t157.5 -92q27 -20 27 -50q0 -26 -19 -46t-44 -20q-21 0 -51 20q-61 44 -117.5 65t-138.5 21q-80 0 -146 -39t-105 -109.5 t-39 -160.5v-463q0 -90 39.5 -160t106.5 -109t146 -39t137 21t117 65q16 10 27.5 15t23.5 5q25 0 44 -20t19 -46q0 -30 -27 -50q-74 -58 -151.5 -89.5z" glyph-name="C" horiz-adv-x="979" unicode="C"/>
<glyph d="M788.5 1252q100.5 -59 157.5 -158.5t57 -213.5v-451q0 -114 -57 -212.5t-156.5 -157t-221.5 -59.5h-3h-4h-301h-1q-31 0 -48 16.5t-17 47.5v1182q0 32 16.5 48.5t48.5 16.5h1h304h1q123 0 223.5 -59zM872 879q0 83 -42 152t-112.5 109t-152.5 40h-1h-239v-1049h238h2 q85 0 155 40t111 109t41 151v448z" glyph-name="D" horiz-adv-x="1110" unicode="D"/>
<glyph d="M254 0q-30 0 -45 17.5t-15 49.5v1179q0 32 17.5 48.5t49.5 16.5h582q32 0 48.5 -16.5t16.5 -48.5t-17 -49.5t-48 -17.5h-517v-444h405q32 0 48.5 -16t16.5 -46t-16.5 -45.5t-48.5 -15.5h-405v-481h517q32 0 48.5 -17t16.5 -49q0 -31 -16.5 -48t-48.5 -17h-589z" glyph-name="E" horiz-adv-x="995" unicode="E"/>
<glyph d="M845 1311q31 0 47.5 -16.5t16.5 -48.5q0 -67 -64 -67h-519v-486h371q32 0 48.5 -16.5t16.5 -46.5q0 -60 -65 -60h-371v-509q0 -32 -17 -48.5t-49 -16.5q-66 0 -66 65v1187q1 31 19.5 47t52.5 16h579z" glyph-name="F" horiz-adv-x="952" unicode="F"/>
<glyph d="M919.5 661.5q18.5 -16.5 18.5 -48.5v-438q0 -62 -37 -86q-60 -32 -103.5 -52t-110.5 -36.5t-147 -16.5q-124 0 -223 58.5t-154.5 158t-55.5 218.5v469q0 119 54 219t151.5 159.5t223.5 59.5q80 0 142 -18.5t99 -40t88 -57.5q32 -22 32 -54q0 -26 -19.5 -46.5t-42.5 -20.5 q-21 0 -51 19q-5 4 -41.5 29t-91 41.5t-115.5 16.5q-86 0 -154 -40t-106.5 -110t-38.5 -156v-467q0 -89 38.5 -159t108 -109.5t159.5 -39.5q61 0 112.5 12.5t84.5 27t74 36.5v361h-232q-31 0 -47.5 16.5t-16.5 47.5t16.5 47t47.5 16h287q32 0 50.5 -16.5z" glyph-name="G" horiz-adv-x="1043" unicode="G"/>
<glyph d="M1024 1250v-1189q0 -31 -16.5 -48t-48.5 -17q-31 0 -48 17t-17 48v526h-569v-526q0 -32 -17 -48.5t-49 -16.5q-31 0 -48 17t-17 48v1189q0 31 16.5 47.5t48.5 16.5t49 -16.5t17 -47.5v-531h569v531q0 31 17 47.5t49 16.5q64 0 64 -64z" glyph-name="H" horiz-adv-x="1219" unicode="H"/>
<glyph d="M326 61q0 -31 -17.5 -48t-49.5 -17q-31 0 -48 17t-17 48v1189q0 64 65 64q67 0 67 -64v-1189z" glyph-name="I" horiz-adv-x="520" unicode="I"/>
<glyph d="M943 1249v-3v-830q0 -121 -53 -220t-149.5 -155.5t-219.5 -56.5q-117 0 -209.5 57t-144.5 155.5t-52 219.5v54q0 30 17 46t48 16t46.5 -16t15.5 -46v-44q0 -94 36 -164.5t100.5 -108.5t145.5 -38q82 0 147.5 38t103 108.5t37.5 164.5v757h-450q-33 0 -50.5 16.5 t-17.5 46.5q0 32 17.5 48.5t50.5 16.5h517q31 0 47.5 -15t16.5 -43v-4z" glyph-name="J" horiz-adv-x="1091" unicode="J"/>
<glyph d="M1021 53q0 -24 -18 -40.5t-46 -16.5q-23 0 -37.5 9t-26.5 30l-383 643l-184 -217v-404q0 -31 -17 -47.5t-49 -16.5t-49 16.5t-17 47.5v1194q0 31 17 47.5t49 16.5t49 -16.5t17 -47.5v-591l538 639q18 19 43 19q32 0 50 -18t18 -44q0 -30 -20 -51l-356 -421l411 -695 q11 -19 11 -36z" glyph-name="K" horiz-adv-x="1092" unicode="K"/>
<glyph d="M917 64q0 -32 -16.5 -48.5t-48.5 -15.5h-593q-32 0 -48.5 19t-16.5 56v1175q0 32 17 48.5t48 16.5q33 0 50 -16.5t17 -48.5v-1119l526 -1q65 0 65 -66z" glyph-name="L" horiz-adv-x="968" unicode="L"/>
<glyph d="M1268 1307.5q19 -15.5 19 -42.5v-1206q0 -31 -16.5 -48t-48.5 -17t-49 16.5t-17 48.5v1027l-367 -516q-12 -15 -23 -22.5t-25 -7.5q-28 0 -49 30l-367 515v-1026q0 -31 -16.5 -48t-48.5 -17t-49 16.5t-17 48.5v1206q0 30 19 44t48 14q30 0 49 -26l431 -590l429 590 q13 17 25.5 21.5t26.5 4.5q27 0 46 -15.5z" glyph-name="M" horiz-adv-x="1481" unicode="M"/>
<glyph d="M1062 1306q16 -17 16 -49v-1207q0 -27 -16.5 -41.5t-40.5 -14.5q-40 0 -57 27l-638 1024v-983q0 -33 -17 -50.5t-50 -17.5q-32 0 -48.5 18t-16.5 50v1200q0 26 18.5 43.5t44.5 17.5q39 0 57 -28l633 -1015v977q0 31 17 48.5t50 17.5q32 0 48 -17z" glyph-name="N" horiz-adv-x="1273" unicode="N"/>
<glyph d="M107 893q0 120 56.5 219.5t155 157t219.5 57.5q124 0 223 -57.5t155 -156.5t56 -220v-477q0 -121 -56.5 -219.5t-156 -155.5t-221.5 -57q-120 0 -218.5 57t-155.5 156t-57 219v477zM238 422q0 -91 40.5 -161t109 -108t150.5 -38q85 0 154 38t109 107.5t40 161.5v467 q0 91 -40.5 161t-109.5 108t-153 38q-82 0 -150.5 -38t-109 -108t-40.5 -161v-467z" glyph-name="O" horiz-adv-x="1079" unicode="O"/>
<glyph d="M533 1311q211 0 322.5 -106t111.5 -327v-23q0 -218 -112 -325t-322 -107h-207v-350q0 -34 -18 -55.5t-49 -21.5q-32 0 -48.5 17t-16.5 48v1185q0 32 16.5 48.5t48.5 16.5h274zM326 1179v-629h198q110 0 178 30.5t101 98t33 179.5v20q0 108 -32.5 174t-100.5 96.5 t-176 30.5h-201z" glyph-name="P" horiz-adv-x="1040" unicode="P"/>
<glyph d="M940 -124q20 0 31.5 -16t11.5 -39q0 -22 -12 -37t-28 -21q-94 -35 -193 -37q-118 0 -194 67.5t-91 196.5q-103 16 -184.5 76t-127.5 151.5t-46 198.5v477q0 120 56.5 219.5t155 157t219.5 57.5q124 0 223 -57.5t155 -156.5t56 -220v-477q0 -112 -48.5 -205t-135 -152.5 t-195.5 -71.5q9 -75 52.5 -111.5t110.5 -36.5q43 0 81.5 8.5t88.5 26.5q10 2 14 2zM278.5 261q40.5 -70 109 -108t150.5 -38q85 0 154 38t109 107.5t40 161.5v467q0 91 -40.5 161t-109.5 108t-153 38q-82 0 -150.5 -38t-109 -108t-40.5 -161v-467q0 -91 40.5 -161z" glyph-name="Q" horiz-adv-x="1079" unicode="Q"/>
<glyph d="M909.5 684q-57.5 -90 -152.5 -140q54 -31 91 -79.5t51 -114.5l59 -273q1 -7 1 -20q0 -64 -64 -64q-51 0 -62 51l-65 290q-17 76 -75 117.5t-135 43.5h-232v-434q0 -31 -17.5 -48t-49.5 -17t-48.5 17t-16.5 48v1185q0 32 16.5 48.5t48.5 16.5h257q221 0 336 -98t115 -312 v-8q0 -119 -57.5 -209zM836 898q0 149 -75.5 215.5t-232.5 66.5h-202v-563h244q76 0 136.5 33t95 94t34.5 140v14z" glyph-name="R" horiz-adv-x="1087" unicode="R"/>
<glyph d="M150.5 1171q51.5 77 134.5 116.5t177 39.5q99 0 180 -28.5t166 -94.5q23 -17 23 -46q0 -26 -18 -46.5t-44 -20.5q-11 0 -21 4.5t-28 15.5q-64 48 -124 67.5t-134 19.5q-58 0 -111.5 -23.5t-87.5 -70.5t-34 -113q0 -52 32 -92t77 -66.5t113 -57.5l48 -23l30 -15 q115 -57 180.5 -101t110 -116t44.5 -179q0 -99 -53 -181t-145.5 -129t-207.5 -47q-180 0 -353 116q-32 21 -32 53q0 27 19.5 48.5t41.5 21.5q11 0 19.5 -2.5t26.5 -13.5q59 -38 128.5 -65.5t156.5 -27.5q76 0 137.5 30t96.5 82t35 114q0 73 -35.5 124t-90 84.5t-154.5 81.5 l-19 9q-102 47 -169.5 88t-117 106.5t-49.5 154.5q0 106 51.5 183z" glyph-name="S" horiz-adv-x="948" unicode="S"/>
<glyph d="M878 1245q0 -65 -65 -65h-297v-1117q0 -33 -17 -50t-49 -17q-65 0 -65 65v1119h-298q-65 0 -65 66q0 65 65 65h726q65 0 65 -66z" glyph-name="T" horiz-adv-x="900" unicode="T"/>
<glyph d="M360 41.5q-97 57.5 -154.5 156.5t-57.5 218v834q0 31 17 47.5t48 16.5q32 0 49 -16.5t17 -47.5v-828q0 -92 39 -161.5t106.5 -107.5t149.5 -38q84 0 151 38t105 107.5t38 161.5v828q0 31 17 47.5t49 16.5q31 0 48 -16.5t17 -47.5v-834q0 -121 -55 -219.5t-152.5 -155.5 t-220.5 -57q-114 0 -211 57.5z" glyph-name="U" horiz-adv-x="1147" unicode="U"/>
<glyph d="M960.5 1296.5q20.5 -18.5 20.5 -44.5q0 -11 -5 -24l-409 -1199q-9 -24 -24 -34.5t-38 -10.5q-47 0 -62 45l-409 1199q-5 15 -5 25q0 27 19.5 44.5t46.5 17.5q20 0 36.5 -11t21.5 -29l352 -1077l351 1077q5 18 21 29t37 11q26 0 46.5 -18.5z" glyph-name="V" horiz-adv-x="1010" unicode="V"/>
<glyph d="M1437.5 1297.5q18.5 -17.5 18.5 -45.5q0 -13 -2 -20l-293 -1185q-9 -35 -26 -49t-45 -14q-63 0 -78 63l-269 1051l-269 -1052q-8 -33 -29 -47.5t-49 -14.5t-45 14.5t-26 49.5l-293 1184q-3 11 -3 21q0 28 18.5 45t46.5 17q22 0 39.5 -14.5t23.5 -43.5l246 -1043l263 1033 q8 34 28 51t49 17q61 0 76 -67l264 -1032l246 1041q6 29 23.5 43.5t39.5 14.5q27 0 45.5 -17.5z" glyph-name="W" horiz-adv-x="1486" unicode="W"/>
<glyph d="M933 59q0 -25 -18.5 -42.5t-44.5 -18.5q-15 -2 -28 3.5t-20 17.5l-327 516l-327 -516q-17 -24 -49 -21q-27 1 -45 18.5t-18 43.5q0 22 14 43l349 553l-345 549q-15 20 -15 44q0 25 17.5 43t44.5 19q14 2 27.5 -4t21.5 -17l324 -513l324 513q9 11 22.5 16.5t27.5 4.5 q27 -1 44 -19t17 -43q0 -23 -14 -44l-346 -550l349 -553q15 -22 15 -43z" glyph-name="X" horiz-adv-x="988" unicode="X"/>
<glyph d="M934 1295q18 -19 18 -46q0 -20 -12 -41l-388 -665v-482q0 -31 -16.5 -48t-48.5 -17t-49 17t-17 48v481l-387 666q-13 20 -13 42q0 26 18.5 45t44.5 19q36 0 54 -33l349 -621l348 621q17 33 55 33q26 0 44 -19z" glyph-name="Y" horiz-adv-x="973" unicode="Y"/>
<glyph d="M882.5 114q16.5 -17 16.5 -49t-16.5 -48.5t-47.5 -16.5h-724q-27 0 -42.5 18t-15.5 47q0 19 14 44l616 1070h-540q-30 0 -47 17.5t-17 49.5q0 31 17 48t49 17h660q26 0 41.5 -19t15.5 -46q0 -20 -16 -47l-622 -1068h611q31 0 47.5 -17z" glyph-name="Z" horiz-adv-x="939" unicode="Z"/>
<glyph d="M500.5 -171q16.5 -16 16.5 -47q0 -32 -17 -49.5t-48 -17.5h-253q-32 0 -49 17.5t-17 49.5v1517q0 32 17 49.5t49 17.5h252q32 0 49 -17.5t17 -51.5q0 -30 -17 -46t-49 -16h-187v-1390h188q32 0 48.5 -16z" glyph-name="bracketleft" horiz-adv-x="546" unicode="["/>
<glyph d="M52 1253q0 28 20.5 44.5t50.5 16.5q22 0 39 -13t25 -38l381 -1184q3 -10 3 -20q0 -26 -20 -42.5t-47 -16.5q-22 0 -40.5 12.5t-25.5 33.5l-382 1183q-4 12 -4 24z" glyph-name="backslash" horiz-adv-x="623" unicode="\"/>
<glyph d="M282 -155v1390h-187q-32 0 -49 16t-17 46q0 34 17 51.5t49 17.5h252q32 0 49 -17.5t17 -49.5v-1517q0 -32 -17 -49.5t-49 -17.5h-253q-31 0 -48 17.5t-17 49.5q0 31 16.5 47t48.5 16h188z" glyph-name="bracketright" horiz-adv-x="546" unicode="]"/>
<glyph d="M767 822q0 -22 -16 -38t-39 -17q-13 -2 -26.5 4t-22.5 18l-263 373l-263 -373q-9 -12 -22 -18t-26 -5q-24 1 -40.5 18t-16.5 38q0 16 11 32l309 442q9 12 21.5 18.5t26.5 6.5t27.5 -5.5t21.5 -18.5l307 -440q11 -16 11 -35z" glyph-name="asciicircum" horiz-adv-x="806" unicode="^"/>
<glyph d="M880 -112q34 0 53 -16t19 -45q0 -30 -19 -46t-53 -16h-810q-34 0 -52 16t-18 46q0 61 70 61h810z" glyph-name="underscore" horiz-adv-x="952" unicode="_"/>
<glyph d="M80 1310q0 24 18 43t40 19q15 0 26.5 -5.5t20.5 -23.5l117 -167q6 -12 6 -26q0 -20 -12.5 -34.5t-34.5 -14.5t-38 17l-128 155q-15 16 -15 37z" glyph-name="grave" horiz-adv-x="510" unicode="`"/>
<glyph d="M629.5 937q73.5 -40 111.5 -114t38 -176v-532q0 -34 -10 -49t-46 -29q-57 -24 -139 -38.5t-171 -14.5q-98 0 -170.5 35t-111.5 100.5t-39 155.5v4q0 146 86.5 219t238.5 73q131 0 240 -37v106q0 105 -56.5 160.5t-154.5 55.5q-97 0 -188 -38q-5 -1 -16.5 -4.5t-22.5 -3.5 q-20 0 -34.5 18t-14.5 40q0 20 8.5 34t29.5 23q52 24 115 38t130 14q103 0 176.5 -40zM657 132v304q-47 15 -106 24t-118 9q-104 0 -161.5 -45t-57.5 -137v-2q0 -92 56 -144t158 -52q115 0 229 43z" glyph-name="a" horiz-adv-x="930" unicode="a"/>
<glyph d="M720 931.5q79 -45.5 123 -122t44 -167.5v-317q0 -96 -47.5 -174t-129 -122.5t-179.5 -44.5q-83 0 -153.5 14t-143.5 39q-33 11 -45 25t-12 45v1181q0 31 15.5 47t45.5 16q62 0 62 -63v-316l-10 -39q122 44 252 44q99 0 178 -45.5zM764 639q0 62 -31 111.5t-84.5 77.5 t-118.5 28q-70 0 -121.5 -11.5t-77 -20.5t-31.5 -11v-666q9 -3 45.5 -15t84.5 -20t100 -8q65 0 118.5 28.5t84.5 78.5t31 112v316z" glyph-name="b" horiz-adv-x="1004" unicode="b"/>
<glyph d="M164.5 810q46.5 77 128.5 122t183 45q86 0 148.5 -24t111.5 -59q24 -18 24 -45q0 -22 -14.5 -39.5t-32.5 -17.5q-13 -1 -20 0t-14 3.5t-11 3.5q-40 25 -86.5 41t-110.5 16q-63 0 -116 -28.5t-83.5 -78.5t-30.5 -111v-316q0 -59 29.5 -109t82.5 -79.5t118 -29.5t110 16 t87 42q12 4 21 6t24 1q18 -1 32.5 -18.5t14.5 -39.5q0 -27 -24 -45q-56 -38 -113.5 -60t-150.5 -22q-102 0 -183 45.5t-126 122t-45 167.5v322q0 92 46.5 169z" glyph-name="c" horiz-adv-x="842" unicode="c"/>
<glyph d="M714 933l-10 39v316q0 63 62 63t62 -63v-1181q0 -30 -12.5 -44.5t-45.5 -25.5q-72 -25 -142 -39t-154 -14q-98 0 -179.5 44.5t-129 122.5t-47.5 174v317q0 91 44 167.5t122.5 122t178.5 45.5q129 0 251 -44zM272 211q31 -50 84 -78.5t118 -28.5q67 0 115.5 10.5t77.5 20 t37 12.5v666q-5 2 -36.5 13t-84.5 20.5t-109 9.5q-65 0 -118 -28t-84 -77.5t-31 -111.5v-316q0 -62 31 -112z" glyph-name="d" horiz-adv-x="1005" unicode="d"/>
<glyph d="M652.5 930q81.5 -47 128 -126t46.5 -170v-135q0 -25 -14.5 -41t-40.5 -16h-534v-115q0 -61 30.5 -113.5t84 -83.5t119.5 -31q42 0 77.5 9t57 19t57.5 29q7 3 17.5 8.5t21.5 5.5q26 0 41.5 -18t15.5 -41q0 -14 -6.5 -27t-18.5 -21q-43 -29 -112 -54t-152 -25 q-100 0 -180.5 45.5t-126.5 121.5t-46 165v325q0 92 45.5 169t126.5 122t181 45t181.5 -47zM238 544h470v100q0 62 -32 113t-86 80.5t-119 29.5t-118 -28.5t-84 -79.5t-31 -115v-100z" glyph-name="e" horiz-adv-x="905" unicode="e"/>
<glyph d="M637 1307.5q12 -12.5 12 -37.5q0 -26 -14 -41.5t-36 -15.5q-5 0 -15 2q-44 16 -76 23.5t-75 7.5q-65 0 -107 -34t-42 -96q0 -39 17 -83l27 -73h190q29 0 44 -15t15 -43q0 -29 -15 -44t-44 -15h-186v-905q0 -109 -48.5 -187.5t-159.5 -78.5q-31 0 -54 2t-60 10 q-25 6 -39 19t-14 38q0 29 17.5 43.5t42.5 12.5q52 -9 93 -9q61 0 80 47t19 114v894h-62q-58 2 -58 59q0 28 15 43t43 15h62l-26 72q-23 63 -23 114q0 65 31.5 113.5t87.5 75t127 26.5q57 0 102 -8.5t92 -25.5q25 -7 37 -19.5z" glyph-name="f" horiz-adv-x="597" unicode="f"/>
<glyph d="M298 -256q0 27 14.5 43.5t39.5 16.5q8 0 12 -1q72 -18 160 -18q96 0 142 68.5t46 210.5l8 53q-5 -3 -39 -24t-95.5 -39t-130.5 -18q-90 0 -167.5 47.5t-123.5 131t-46 186.5v230q0 101 44.5 179.5t123 122.5t177.5 44q95 0 167.5 -14t148.5 -43q28 -10 38.5 -24.5 t10.5 -45.5v-803q0 -119 -34.5 -204t-99.5 -130t-154 -45q-93 0 -185 21q-57 9 -57 55zM600 176q51 18 75 32t29 17v588q-8 3 -46 16t-84.5 20t-99.5 7q-66 0 -119 -28.5t-83.5 -82t-30.5 -125.5v-216q0 -73 29.5 -129t82.5 -86.5t121 -30.5q75 0 126 18z" glyph-name="g" horiz-adv-x="994" unicode="g"/>
<glyph d="M718 933q79 -44 124 -121t45 -171v-581q0 -31 -16 -47.5t-47 -16.5q-29 0 -44.5 16.5t-15.5 47.5v579q0 61 -31 110.5t-84.5 78t-118.5 28.5q-67 0 -113.5 -9.5t-96.5 -25.5q-4 -2 -20 -7v-754q0 -31 -15 -47.5t-44 -16.5q-31 0 -47.5 16.5t-16.5 47.5v1228q0 31 15.5 47 t45.5 16q62 0 62 -63v-315l-10 -41q56 21 121.5 33t129.5 12q98 0 177 -44z" glyph-name="h" horiz-adv-x="1037" unicode="h"/>
<glyph d="M347 898v0v-840q0 -30 -15.5 -46t-45.5 -16t-46 16t-16 46v785h-108q-28 0 -43 15t-15 44q0 58 58 58h168h1h1q53 0 60 -46q1 -4 1 -15v-1zM193 1167.5q-23 22.5 -23 54.5t23 55t55 23q33 0 55.5 -23t22.5 -55t-22.5 -54.5t-55.5 -22.5q-32 0 -55 22.5z" glyph-name="i" horiz-adv-x="514" unicode="i"/>
<glyph d="M347 898v0v-942q0 -138 -58 -213t-177 -75q-37 0 -104 14q-29 6 -43 18t-14 37q0 30 15.5 48t44.5 14q67 -14 91 -14q66 0 94 43.5t28 133.5v881h-108q-28 0 -43 15t-15 44q0 58 58 58h168h1h1q53 0 60 -46q1 -4 1 -15v-1zM213 1169.5q-23 22.5 -23 54.5t23 55t55 23 q33 0 55.5 -23t22.5 -55t-22.5 -54.5t-55.5 -22.5q-32 0 -55 22.5z" glyph-name="j" horiz-adv-x="514" unicode="j"/>
<glyph d="M864 55q0 -21 -17.5 -38t-43.5 -17q-13 0 -24 6t-25 21l-267 363q-35 -13 -83 -30l-104 -36v-266q0 -26 -17.5 -44t-43.5 -18t-44 18t-18 44v1230q0 27 17.5 45t43.5 18q27 0 44.5 -18t17.5 -45v-510q59 89 142 144t178 55q68 0 120.5 -26.5t81.5 -76t29 -115.5 q0 -98 -62.5 -177t-192.5 -144l249 -328q19 -22 19 -55zM409 489q162 55 240.5 112t78.5 129q0 57 -33.5 88t-99.5 31q-71 0 -140 -54t-112 -136.5t-43 -161.5v-49z" glyph-name="k" horiz-adv-x="945" unicode="k"/>
<glyph d="M327 1284v-1226q0 -30 -16 -46t-46 -16t-46 16t-16 46v1166h-84q-30 0 -45.5 16t-15.5 46q0 61 61 61h146q13 0 22 -3q40 -10 40 -60z" glyph-name="l" horiz-adv-x="494" unicode="l"/>
<glyph d="M1216.5 935.5q73.5 -41.5 115 -115t41.5 -167.5v-593q0 -31 -16 -47.5t-46 -16.5q-29 0 -44.5 17t-15.5 47v583q0 62 -28 110.5t-76.5 75.5t-106.5 27q-62 0 -123.5 -27.5t-102.5 -61.5q18 -52 18 -115v-592q0 -30 -16 -47t-46 -17q-29 0 -45 16.5t-16 47.5v590 q0 62 -28 109t-76 72t-107 25q-58 0 -108 -12t-100 -30v-754q0 -31 -15.5 -47.5t-43.5 -16.5q-31 0 -47.5 16.5t-16.5 47.5v802q0 41 39 55q75 26 148 43t155 17q73 0 134.5 -25.5t105.5 -73.5q65 41 145 70t157 29q92 0 165.5 -41.5z" glyph-name="m" horiz-adv-x="1524" unicode="m"/>
<glyph d="M719 936q75 -41 116.5 -118t41.5 -182v-576q0 -31 -16 -47.5t-47 -16.5q-29 0 -44.5 16.5t-15.5 47.5v569q0 111 -59.5 169t-161.5 58q-130 0 -243 -43v-753q0 -31 -15 -47.5t-44 -16.5q-31 0 -47.5 16.5t-16.5 47.5v802q0 17 8 31t22 20q150 64 347 64q100 0 175 -41z " glyph-name="n" horiz-adv-x="1027" unicode="n"/>
<glyph d="M118 642q0 93 47 169.5t128 121t179 44.5t179.5 -44.5t129 -121t47.5 -169.5v-325q0 -92 -47.5 -168.5t-129 -120.5t-179.5 -44t-179 44t-128 120.5t-47 168.5v325zM241 322q0 -62 30.5 -112t83.5 -78t117 -28t117.5 28.5t84.5 78t31 111.5v316q0 62 -31 111.5t-84.5 78 t-117.5 28.5t-117 -28.5t-83.5 -78t-30.5 -111.5v-316z" glyph-name="o" horiz-adv-x="945" unicode="o"/>
<glyph d="M386 -3q-55 13 -106 31l10 -39v-260q0 -62 -62 -62q-61 0 -61 62v1124q0 31 12 45.5t45 25.5q161 53 308 53q97 0 176 -44t124 -120.5t45 -169.5v-325q0 -90 -46.5 -167t-128 -122t-181.5 -45q-80 0 -135 13zM723 749.5q-31 49.5 -84.5 78t-118.5 28.5q-64 0 -111.5 -9.5 t-96.5 -25.5l-22 -7v-667q6 -2 38 -13.5t84 -20.5t108 -9q65 0 118.5 28t84.5 78t31 112v316q0 62 -31 111.5z" glyph-name="p" horiz-adv-x="994" unicode="p"/>
<glyph d="M292.5 29q-81.5 45 -128 122t-46.5 167v325q0 93 45 169.5t123.5 120.5t176.5 44q148 0 307 -53q33 -11 45.5 -25.5t12.5 -45.5v-1124q0 -62 -62 -62t-62 62v260l10 39q-51 -18 -105.5 -31t-134.5 -13q-100 0 -181.5 45zM241 322q0 -62 31 -112t84 -78t118 -28 q71 0 123.5 12t77 20.5t29.5 10.5v667l-21 6q-49 16 -96.5 26t-112.5 10t-118 -28.5t-84 -78t-31 -111.5v-316z" glyph-name="q" horiz-adv-x="994" unicode="q"/>
<glyph d="M565.5 851q-39.5 5 -69.5 5q-56 0 -115 -22t-91 -53v-721q0 -31 -15 -47.5t-44 -16.5q-30 0 -47 16.5t-17 47.5v771q0 16 10 30t26 24q53 39 136 65.5t158 26.5q45 0 91 -6.5t77 -18.5q19 -7 28.5 -21.5t9.5 -33.5q0 -32 -16.5 -47.5t-47.5 -13.5q-34 10 -73.5 15z" glyph-name="r" horiz-adv-x="731" unicode="r"/>
<glyph d="M221.5 511.5q-47.5 27.5 -80.5 79.5t-33 133q0 78 38.5 135t102 87t138.5 30q70 0 124 -15.5t110 -44.5q17 -9 26.5 -24t9.5 -31q0 -22 -15.5 -39.5t-39.5 -17.5q-12 0 -26.5 5t-20.5 7q-5 2 -31.5 13.5t-61.5 19t-73 7.5q-63 0 -109.5 -35t-46.5 -103q0 -44 18.5 -72 t53.5 -48t103 -47q98 -40 151.5 -72t83.5 -82t30 -130q0 -86 -38.5 -150t-105.5 -98.5t-151 -34.5q-76 0 -142.5 20.5t-116.5 46.5q-47 20 -47 58q0 25 16.5 41.5t40.5 16.5q17 0 56 -15q48 -21 94 -34.5t103 -13.5q74 0 120 43t46 115q0 50 -21.5 81.5t-60.5 53t-119 55.5 q-78 32 -125.5 59.5z" glyph-name="s" horiz-adv-x="747" unicode="s"/>
<glyph d="M276.5 1276q15.5 -16 15.5 -46v-270h211q59 0 59 -58q0 -28 -15 -43.5t-44 -15.5h-211v-570q0 -169 140 -169q41 0 103 11l27 4q5 1 14 1q25 0 39.5 -16t14.5 -43q0 -26 -16 -40.5t-49 -19.5q-46 -9 -77 -13t-64 -4q-127 0 -191 70t-64 208v581h-62q-26 1 -40 16t-14 43 t14 43t40 15h62v270q0 30 16 46t46 16t45.5 -16z" glyph-name="t" horiz-adv-x="677" unicode="t"/>
<glyph d="M318.5 26.5q-78.5 42.5 -123 118.5t-44.5 171v585q0 30 16 46.5t46 16.5q29 0 44.5 -16t15.5 -47v-583q0 -62 31 -111t84.5 -76t118.5 -27q71 0 123.5 11.5t107.5 32.5v753q0 31 15 47t43 16q31 0 47.5 -16t16.5 -47v-802q0 -18 -7.5 -31.5t-21.5 -19.5 q-150 -64 -335 -64q-99 0 -177.5 42.5z" glyph-name="u" horiz-adv-x="1027" unicode="u"/>
<glyph d="M777.5 947.5q18.5 -16.5 18.5 -42.5q0 -14 -5 -27l-310 -850q-7 -19 -23.5 -30t-36.5 -11t-36 10.5t-24 30.5l-310 850q-5 15 -5 27q0 26 18.5 42.5t44.5 16.5q42 0 53 -37l259 -753l259 753q12 37 52 37q27 0 45.5 -16.5z" glyph-name="v" horiz-adv-x="842" unicode="v"/>
<glyph d="M1225.5 948q19.5 -16 19.5 -43q0 -12 -4 -23l-246 -836q-9 -30 -28.5 -44.5t-44.5 -14.5q-26 0 -45 13.5t-26 40.5l-206 748l-206 -748q-7 -27 -26 -40.5t-45 -13.5q-25 0 -44.5 15t-28.5 44l-245 836q-4 12 -4 24q0 27 19 42.5t47 15.5q40 0 52 -46l214 -757l201 755 q6 28 24.5 40t42.5 12t42 -12t24 -41l201 -757l213 760q13 46 53 46q27 0 46.5 -16z" glyph-name="w" horiz-adv-x="1291" unicode="w"/>
<glyph d="M772 56q0 -24 -18 -42t-44 -18q-15 1 -28 8.5t-21 20.5l-248 366l-248 -366q-21 -29 -51 -29q-25 0 -43 18.5t-18 42.5q0 18 10 32l276 410l-251 370q-11 15 -11 34q0 24 19 42t45 19q29 0 49 -29l230 -341l231 340q22 30 50 30q26 0 44 -17.5t18 -42.5q0 -18 -10 -35 l-260 -382l269 -398q10 -16 10 -33z" glyph-name="x" horiz-adv-x="830" unicode="x"/>
<glyph d="M843.5 948q16.5 -16 16.5 -47v-856q0 -179 -76 -276.5t-212 -97.5q-100 0 -187 20q-61 11 -61 59q0 28 13.5 43t39.5 15q8 0 12 -1l36 -6q40 -7 68 -10t64 -3q95 0 142 64.5t47 202.5v5q-115 -36 -250 -36q-99 0 -177.5 42.5t-123 118.5t-44.5 171v545q0 30 16 46.5 t46 16.5q29 0 44.5 -16t15.5 -47v-543q0 -62 31 -110.5t84.5 -75.5t118.5 -27q72 0 125.5 11.5t105.5 31.5v713q0 31 15 47t43 16q31 0 47.5 -16z" glyph-name="y" horiz-adv-x="1027" unicode="y"/>
<glyph d="M778 61q0 -61 -66 -61h-577q-27 0 -42.5 20t-15.5 44q0 22 18 47l495 728h-441q-32 0 -48.5 15.5t-16.5 44.5q0 61 65 61h556q27 0 42.5 -18t15.5 -44q0 -24 -21 -51l-492 -726h462q66 0 66 -60z" glyph-name="z" horiz-adv-x="829" unicode="z"/>
<glyph d="M618 -191q0 -64 -64 -64q-82 0 -150 37t-107 102.5t-39 147.5v262q0 87 -29 132t-101 62q-28 4 -43 21t-15 45q0 30 15 47.5t43 21.5q72 15 101 60.5t29 131.5v265q0 81 39 146t107 102.5t150 37.5q64 0 64 -65t-64 -65q-46 0 -84 -22.5t-60 -60.5t-22 -83v-247 q0 -90 -29 -159.5t-104 -108.5q76 -40 104.5 -109.5t28.5 -160.5v-244q0 -45 22 -83.5t60 -61t84 -22.5q64 0 64 -65z" glyph-name="braceleft" horiz-adv-x="685" unicode="{"/>
<glyph d="M194 1243q0 34 16.5 51t48.5 17q66 0 66 -68v-1439q0 -33 -17 -50t-49 -17t-48.5 17t-16.5 50v1439z" glyph-name="bar" horiz-adv-x="519" unicode="|"/>
<glyph d="M600 601.5q15 -17.5 15 -47.5q0 -28 -15 -45t-43 -21q-72 -17 -101 -62t-29 -132v-262q0 -82 -39 -147.5t-107 -102.5t-150 -37q-64 0 -64 64q0 65 64 65q46 0 84 22.5t60 61t22 83.5v244q0 91 28.5 160.5t104.5 109.5q-75 39 -104 108.5t-29 159.5v247q0 45 -22 83 t-60 60.5t-84 22.5q-64 0 -64 65t64 65q82 0 150 -37.5t107 -102.5t39 -146v-265q0 -86 29 -131.5t101 -60.5q28 -4 43 -21.5z" glyph-name="braceright" horiz-adv-x="685" unicode="}"/>
<glyph d="M906 580q0 -26 -17 -44q-13 -31 -49.5 -68t-87.5 -63t-106 -26q-48 0 -94.5 21.5t-88.5 56.5q-74 62 -135 62q-50 0 -89.5 -32.5t-62.5 -81.5q-20 -20 -48 -20q-26 0 -43 16q-22 19 -22 48q0 26 18 44q14 31 50 68t86.5 63t105.5 26q88 0 180 -71q31 -26 69 -47.5 t68 -21.5q93 0 156 114q27 20 50 20q20 0 38 -15q22 -19 22 -49z" glyph-name="asciitilde" horiz-adv-x="959" unicode="~"/>
<glyph glyph-name="uni00A0" horiz-adv-x="461" unicode=" "/>
<glyph d="M347 951q26 -26 26 -63q0 -38 -26 -64.5t-63 -26.5t-63.5 26.5t-26.5 64.5q0 37 26.5 63t63.5 26t63 -26zM332.5 629.5q16.5 -17.5 16.5 -50.5v-862q0 -66 -65 -66q-31 0 -48 17.5t-17 48.5v862q0 33 16.5 50.5t48.5 17.5t48.5 -17.5z" glyph-name="exclamdown" horiz-adv-x="567" unicode="¡"/>
<glyph d="M745.5 150.5q14.5 -17.5 14.5 -39.5q0 -27 -24 -45q-46 -31 -90 -51t-110 -28v-101q0 -32 -16 -49t-46 -17q-61 0 -61 66v102q-87 13 -154 60t-104 118t-37 153v322q0 83 37.5 153.5t105 117.5t153.5 60v107q0 33 15 50t45 17t46 -17t16 -50v-106q64 -8 112 -29.5 t88 -49.5q24 -18 24 -45q0 -22 -14.5 -39.5t-32.5 -17.5q-13 -1 -20 0t-14 3.5t-11 3.5q-40 25 -86.5 41t-110.5 16q-63 0 -116 -28.5t-83.5 -78.5t-30.5 -111v-316q0 -59 29.5 -109t82.5 -79.5t118 -29.5t110 16t87 42q12 4 21 6t24 1q18 -1 32.5 -18.5z" glyph-name="cent" horiz-adv-x="842" unicode="¢"/>
<glyph d="M925.5 112.5q16.5 -16.5 16.5 -48.5t-16.5 -48.5t-48.5 -15.5h-618q-31 0 -48 20.5t-17 54.5v486h-108q-20 0 -31 11t-11 31q0 19 11 29.5t31 10.5h108v239q0 122 48.5 223.5t141 161t217.5 59.5q82 0 140.5 -17t156.5 -66q37 -16 37 -54q0 -25 -16 -45.5t-35 -21.5 q-14 -1 -31.5 4t-21.5 6q-79 39 -121 51t-105 12q-85 0 -148.5 -41t-97.5 -113t-34 -163v-235h345q20 0 31 -10.5t11 -30.5q0 -41 -42 -41h-345v-431l552 -1q32 0 48.5 -16.5z" glyph-name="sterling" horiz-adv-x="993" unicode="£"/>
<glyph d="M97 268q0 18 15 34l99 103q-27 36 -42 79t-15 90q0 94 59 171l-100 102q-16 17 -16 36q0 21 21 39q16 16 34 16q21 0 40 -22l101 -106q66 47 144 47t143 -47l102 106q17 20 37 20q16 0 34 -13q25 -19 25 -39q0 -17 -17 -37l-100 -102q59 -76 59 -171q0 -93 -57 -169 l100 -104q13 -17 13 -35q0 -22 -22 -38q-17 -14 -33 -14q-21 0 -39 21l-101 106q-65 -47 -144 -47q-82 0 -144 47l-101 -106q-19 -22 -39 -22q-16 0 -33 15q-23 18 -23 40zM525.5 422q40.5 24 64 65t23.5 89q0 47 -24 88t-64 65t-88 24q-49 0 -89.5 -23.5t-64 -64.5 t-23.5 -89t23.5 -89t64 -65t89.5 -24q48 0 88.5 24z" glyph-name="currency" horiz-adv-x="866" unicode="¤"/>
<glyph d="M934 1295q18 -19 18 -46q0 -20 -12 -41l-355 -609h193q42 0 42 -42q0 -19 -11 -29.5t-31 -10.5h-226v-167h227q42 0 42 -41q0 -19 -11 -29.5t-31 -10.5h-227v-208q0 -31 -16.5 -48t-48.5 -17t-49 17t-17 48v208h-226q-42 0 -42 42q0 19 11 29t31 10h226v167h-227 q-42 0 -42 41t42 41h194l-354 609q-13 20 -13 42q0 26 18.5 45t44.5 19q36 0 54 -33l349 -621l348 621q17 33 55 33q26 0 44 -19z" glyph-name="yen" horiz-adv-x="973" unicode="¥"/>
<glyph d="M194 1244q0 32 17 50t48 18q33 0 50 -17.5t17 -50.5v-608q0 -67 -67 -67q-32 0 -48.5 17t-16.5 50v608zM194 353q0 31 17 48.5t48 17.5q33 0 50 -17.5t17 -48.5v-603q0 -32 -17 -49t-50 -17q-32 0 -48.5 17t-16.5 49v603z" glyph-name="brokenbar" horiz-adv-x="520" unicode="¦"/>
<glyph d="M838.5 260.5q-24.5 -60.5 -66.5 -103.5q51 -67 51 -166q0 -103 -51.5 -180t-132.5 -117t-167 -40q-112 0 -193 39.5t-137 117.5q-12 10 -18.5 24.5t-5.5 30.5q1 21 16.5 37t38.5 16q18 0 36 -11q88 -128 259 -128q53 0 104.5 24.5t85.5 72t34 113.5q0 59 -32 98.5t-78 63 t-120 51.5l-42 16q-110 45 -183 88t-121.5 111t-48.5 166q0 72 25.5 134.5t67.5 103.5q-53 69 -53 172q0 96 49 171.5t132.5 117.5t181.5 42q97 0 183 -43.5t135 -114.5q27 -22 27 -48q0 -22 -17.5 -41t-41.5 -19q-16 0 -36 12q-47 67 -114.5 97.5t-143.5 30.5 q-53 0 -105 -24.5t-86 -71.5t-34 -112q0 -62 33 -103t80 -64.5t122 -50.5q11 -4 20 -7t17 -6q110 -44 184 -87t122 -110.5t48 -164.5q0 -77 -24.5 -137.5zM510 306q69 -25 110.5 -43t77.5 -41q48 74 48 162q0 70 -35 118.5t-91.5 81t-148.5 70.5l-57 21q-66 25 -106 42 t-75 40q-23 -35 -36.5 -77.5t-13.5 -87.5q0 -66 34 -114t92 -82.5t150 -70.5z" glyph-name="section" horiz-adv-x="924" unicode="§"/>
<glyph d="M232 1273.5q19 19.5 46 19.5q28 0 47.5 -19t19.5 -48q0 -27 -19.5 -46t-47.5 -19t-46.5 19t-18.5 46q0 28 19 47.5zM515.5 1273.5q19.5 19.5 46.5 19.5q28 0 47.5 -19.5t19.5 -47.5q0 -27 -19.5 -46t-47.5 -19q-27 0 -46.5 19t-19.5 46q0 28 19.5 47.5z" glyph-name="dieresis" horiz-adv-x="831" unicode="¨"/>
<glyph d="M1112.5 1237q154.5 -90 245 -244t90.5 -336t-90.5 -336t-245 -244.5t-336.5 -90.5q-183 0 -336.5 90.5t-243 244.5t-89.5 336q0 183 89.5 336.5t243 243.5t336.5 90q182 0 336.5 -90zM490 1150q-131 -76 -207 -206.5t-76 -286.5q0 -155 76.5 -286t207.5 -207.5t286 -76.5 t285.5 76.5t207.5 207.5t77 286t-76.5 286t-207.5 207t-286 76q-156 0 -287 -76zM545 901.5q36 60.5 99 96.5t141 36q61 0 109.5 -21.5t81 -53t47.5 -62.5q13 -18 15 -37q0 -16 -14.5 -31.5t-34.5 -15.5q-14 0 -23 5.5t-22 19.5q-24 39 -63.5 68t-99.5 29q-47 0 -86 -22.5 t-61.5 -61t-22.5 -83.5v-224q0 -44 23 -83t62 -62.5t85 -23.5q61 0 102.5 30.5t60.5 68.5q13 13 22.5 18.5t21.5 5.5q22 0 36.5 -15.5t13.5 -31.5q-5 -30 -24 -56q-34 -48 -92.5 -83t-139.5 -35q-76 0 -139 36t-98.5 96.5t-35.5 130.5v231q0 70 36 130.5z" glyph-name="copyright" horiz-adv-x="1555" unicode="©"/>
<glyph d="M363 1281.5q49 -47.5 49 -128.5v-267q0 -20 -6 -29t-29 -18q-30 -12 -72.5 -19t-89.5 -7q-77 0 -123.5 40t-46.5 110v3q0 77 46.5 117.5t124.5 40.5q65 0 119 -29v54q0 51 -27.5 77.5t-75.5 26.5t-92 -18q-5 -1 -11.5 -2.5t-12.5 -1.5q-12 0 -21.5 11.5t-9.5 24.5 q0 26 25 37q60 25 120 25q84 0 133 -47.5zM335 898v135q-20 12 -49.5 20t-58.5 8q-49 0 -77 -23t-28 -68q0 -42 27 -67t75 -25q59 0 111 20z" glyph-name="ordfeminine" horiz-adv-x="489" unicode="ª"/>
<glyph d="M470 155q0 -26 -18.5 -47t-41.5 -22q-30 -3 -51 18l-305 331q-20 22 -20 47q0 29 26 55l297 320q11 11 24.5 16t25.5 3q25 -1 43.5 -22t18.5 -47q0 -24 -17 -42l-260 -282l261 -286q17 -18 17 -42zM864 155q0 -26 -18 -47t-41 -22q-30 -3 -51 18l-305 331q-21 21 -21 47 q0 27 26 55l298 320q10 11 23.5 16t26.5 3q24 -2 42.5 -22.5t18.5 -46.5q0 -24 -17 -42l-259 -282l261 -286q16 -19 16 -42z" glyph-name="guillemotleft" horiz-adv-x="945" unicode="«"/>
<glyph d="M789 374.5q-17 17.5 -17 49.5v146l-661 1q-33 0 -50 17.5t-17 48.5q0 32 17 49t50 17h729q64 -3 64 -67v-212q0 -32 -17.5 -49.5t-48.5 -17.5q-32 0 -49 17.5z" glyph-name="logicalnot" horiz-adv-x="992" unicode="¬"/>
<glyph d="M102.5 434q-17.5 16 -17.5 45q0 30 17.5 46t49.5 16h533q33 0 50 -16t17 -46q0 -61 -67 -61h-533q-32 0 -49.5 16z" glyph-name="uni00AD" horiz-adv-x="841" unicode="­"/>
<glyph d="M1112.5 1237q154.5 -90 245 -244t90.5 -336t-90.5 -336t-245 -244.5t-336.5 -90.5q-183 0 -336.5 90.5t-243 244.5t-89.5 336q0 183 89.5 336.5t243 243.5t336.5 90q182 0 336.5 -90zM1066 158q132 77 209.5 209.5t77.5 289.5t-77.5 289t-209.5 209t-289 77t-289.5 -77 t-209.5 -209t-77 -289t77 -289.5t209.5 -209.5t289.5 -77t289 77zM994.5 991q78.5 -62 78.5 -198v-45q0 -85 -37 -145t-112 -87l122 -155q10 -13 10 -30q0 -20 -13.5 -36t-31.5 -16q-9 0 -17.5 4t-14.5 11l-161 203q-8 -1 -26 -1h-153v-167q0 -23 -12.5 -35t-35.5 -12 t-35 12.5t-12 34.5v677q0 19 14 33t33 14h201q124 0 202.5 -62zM978 794q0 165 -184 165h-155v-377h153q85 0 135.5 37t50.5 130v45z" glyph-name="registered" horiz-adv-x="1555" unicode="®"/>
<glyph d="M614 1281q50 0 50 -46q0 -51 -50 -51h-308q-49 0 -49 50q0 47 49 47h308z" glyph-name="macron" horiz-adv-x="871" unicode="¯"/>
<glyph d="M228 817.5q-62 37.5 -98.5 101t-36.5 136.5q0 75 36.5 137t98.5 98.5t136 36.5q75 0 138 -36.5t99.5 -98.5t36.5 -137q0 -73 -37 -136.5t-99.5 -101t-137.5 -37.5q-74 0 -136 37.5zM452 906q40 23 63 62.5t23 85.5q0 47 -23 87t-63 63t-87 23t-86.5 -23t-62.5 -63 t-23 -87q0 -46 23 -85.5t62.5 -62.5t86.5 -23t87 23z" glyph-name="degree" horiz-adv-x="679" unicode="°"/>
<glyph d="M806 141q17 -16 17 -46q0 -60 -67 -60h-633q-32 0 -49.5 15.5t-17.5 44.5q0 30 17.5 46t49.5 16h254q-4 11 -4 29v260h-259q-33 0 -50 16t-17 45q0 31 17 47t50 16h259v260q0 32 16 49t46 17q62 0 62 -66v-260h261q32 0 49 -16.5t17 -47.5q0 -29 -17 -44.5t-49 -15.5 h-261v-260q0 -18 -4 -29h263q33 0 50 -16z" glyph-name="plusminus" horiz-adv-x="872" unicode="±"/>
<glyph d="M65 840.5q-13 13.5 -13 32.5q0 16 14 32l248 281q32 35 48 67t16 68v8q0 41 -29.5 70.5t-79.5 29.5q-45 0 -73 -16.5t-52 -42.5q-2 -1 -10 -6.5t-18 -5.5q-20 0 -33.5 12.5t-13.5 28.5q0 14 5 22.5t16 16.5q71 79 186 79q54 0 97.5 -24.5t68 -66.5t24.5 -92v-15 q0 -47 -20.5 -92.5t-63.5 -92.5l-195 -218h256q22 0 33.5 -11t11.5 -32q0 -22 -11.5 -34t-33.5 -12h-346q-19 0 -32 13.5z" glyph-name="uni00B2" horiz-adv-x="544" unicode="²"/>
<glyph d="M428 1216.5q54 -51.5 54 -141.5v-38q0 -61 -30 -110.5t-81.5 -78.5t-114.5 -29q-51 0 -87 16t-70 41q-22 10 -32 21.5t-10 29.5q0 16 11 30t32 14q12 0 31 -13q5 -3 25 -18.5t47 -25t59 -9.5q56 0 93.5 39t37.5 96v35q0 56 -37.5 88t-96.5 32h-38q-17 0 -29 11t-13 29 q0 24 13 34l147 153h-223q-22 0 -34 11t-12 30q0 22 12 34t34 12h298q22 0 34 -11.5t12 -30.5q0 -12 -6 -23t-16 -18l-151 -157q87 -1 141 -52.5z" glyph-name="uni00B3" horiz-adv-x="551" unicode="³"/>
<glyph d="M201 1131q-17 -17 -38 -17t-34 14.5t-13 34.5q0 14 6 26l117 168q9 18 20 23t26 5q23 0 40.5 -18.5t17.5 -42.5q0 -22 -15 -38z" glyph-name="acute" horiz-adv-x="517" unicode="´"/>
<glyph d="M861 947.5q16 -16.5 16 -46.5v-775q0 -35 -11.5 -57.5t-45.5 -34.5q-44 -17 -122.5 -33.5t-164.5 -16.5q-79 0 -141.5 36t-101.5 102v-406q0 -30 -15 -46t-44 -16q-31 0 -47.5 17t-16.5 48v1182q0 31 16.5 47t47.5 16q29 0 44 -16t15 -47v-575q0 -64 30.5 -115t83 -79.5 t116.5 -28.5q67 0 118 11t96 26l20 6v755q0 31 15.5 47t44.5 16q31 0 47 -16.5z" glyph-name="uni00B5" horiz-adv-x="1043" unicode="µ"/>
<glyph d="M1039 1292q19 -19 19 -55v-1171q0 -32 -17.5 -49t-49.5 -17q-31 0 -47.5 18t-16.5 52v1111h-272v-1112q0 -33 -16.5 -51t-47.5 -18q-32 0 -49 17t-17 49v563h-67q-117 0 -204 42.5t-134 120.5t-47 184q0 102 47 177.5t134 116.5t204 41h526q36 0 55 -19z" glyph-name="paragraph" horiz-adv-x="1252" unicode="¶"/>
<glyph d="M167.5 426.5q-30.5 30.5 -30.5 72.5q0 41 30.5 71t71.5 30q42 0 72.5 -30t30.5 -71q0 -42 -30 -72.5t-73 -30.5q-41 0 -71.5 30.5z" glyph-name="periodcentered" horiz-adv-x="459" unicode="·"/>
<glyph d="M221 -2h68l-19 -59q72 -8 112.5 -42t40.5 -91q0 -56 -41 -97.5t-117 -64.5l-33 -10q-10 -2 -13 -2q-17 0 -28.5 12.5t-11.5 31.5q-1 10 5 19t20 13l25 8q53 16 81 36t28 51q0 34 -23 50t-79 23q-34 2 -34 32q0 8 1 12z" glyph-name="cedilla" horiz-adv-x="494" unicode="¸"/>
<glyph d="M189 836.5q-12 11.5 -12 33.5v521l-53 -32q-3 -3 -8 -4t-11 -1q-18 0 -29.5 13.5t-11.5 30.5q1 12 7 22t16 16l106 66q8 5 14 7t16 2q21 0 31.5 -12t10.5 -31v-598q0 -22 -11 -33.5t-31 -11.5q-22 0 -34 11.5z" glyph-name="uni00B9" horiz-adv-x="460" unicode="¹"/>
<glyph d="M48 1150q0 50 25 91t68.5 64.5t95.5 23.5t95.5 -23.5t69 -64.5t25.5 -91v-160q0 -49 -25.5 -89.5t-69 -64t-95.5 -23.5t-95.5 23.5t-68.5 64t-25 89.5v160zM125 994q0 -46 32.5 -76t79.5 -30q48 0 80 30t32 76v153q0 46 -32 76t-80 30t-80 -30t-32 -76v-153z" glyph-name="ordmasculine" horiz-adv-x="475" unicode="º"/>
<glyph d="M358 483l-259 282q-17 18 -17 42q0 26 18.5 46.5t42.5 22.5q13 2 26.5 -3t23.5 -16l298 -320q26 -28 26 -55q0 -26 -21 -47l-305 -331q-21 -21 -51 -18q-23 1 -41 22t-18 47q0 23 16 42zM753 483l-260 282q-17 18 -17 42q0 26 18.5 47t43.5 22q12 2 25.5 -3t24.5 -16 l297 -320q26 -26 26 -55q0 -25 -20 -47l-305 -331q-21 -21 -51 -18q-23 1 -41.5 22t-18.5 47q0 24 17 42z" glyph-name="guillemotright" horiz-adv-x="945" unicode="»"/>
<glyph d="M189 636.5q-12 11.5 -12 33.5v521l-53 -32q-3 -3 -8 -4t-11 -1q-18 0 -29.5 13.5t-11.5 30.5q1 12 7 22t16 16l106 66q8 5 14 7t16 2q21 0 31.5 -12t10.5 -31v-598q0 -22 -11 -33.5t-31 -11.5q-22 0 -34 11.5zM363 37q-19 -41 -48 -38q-25 1 -39 13.5t-14 32.5q0 12 8 30 l561 1201q8 16 21 25.5t29 9.5q26 0 38.5 -12t12.5 -32q0 -19 -9 -40zM1109.5 8q-11.5 12 -11.5 33v112h-247q-21 0 -33.5 13t-12.5 37q0 12 4 22l190 426q10 28 42 28q21 0 33 -9.5t12 -27.5q0 -10 -5 -25l-172 -375h189v87q0 22 11.5 33.5t33.5 11.5q44 0 44 -45v-87h45 q21 0 32.5 -11t11.5 -33t-11.5 -33.5t-32.5 -11.5h-45v-112q0 -21 -11.5 -33t-32.5 -12q-22 0 -33.5 12z" glyph-name="onequarter" horiz-adv-x="1470" unicode="¼"/>
<glyph d="M189 636.5q-12 11.5 -12 33.5v521l-53 -32q-3 -3 -8 -4t-11 -1q-18 0 -29.5 13.5t-11.5 30.5q1 12 7 22t16 16l106 66q8 5 14 7t16 2q21 0 31.5 -12t10.5 -31v-598q0 -22 -11 -33.5t-31 -11.5q-22 0 -34 11.5zM321 37q-19 -41 -48 -38q-25 1 -39 13.5t-14 32.5q0 12 8 30 l561 1201q8 16 21 25.5t29 9.5q26 0 38.5 -12t12.5 -32q0 -19 -9 -40zM764 9.5q-13 13.5 -13 32.5q0 16 14 32l248 281q32 35 48 67t16 68v8q0 41 -29.5 70.5t-79.5 29.5q-45 0 -73 -16.5t-52 -42.5q-2 -1 -10 -6.5t-18 -5.5q-20 0 -33.5 12.5t-13.5 28.5q0 14 5 22.5 t16 16.5q71 79 186 79q54 0 97.5 -24.5t68 -66.5t24.5 -92v-15q0 -47 -20.5 -92.5t-63.5 -92.5l-195 -218h256q22 0 33.5 -11t11.5 -32q0 -22 -11.5 -34t-33.5 -12h-346q-19 0 -32 13.5z" glyph-name="onehalf" horiz-adv-x="1381" unicode="½"/>
<glyph d="M428 1016.5q54 -51.5 54 -141.5v-38q0 -61 -30 -110.5t-81.5 -78.5t-114.5 -29q-51 0 -87 16t-70 41q-22 10 -32 21.5t-10 29.5q0 16 11 30t32 14q12 0 31 -13q5 -3 25 -18.5t47 -25t59 -9.5q56 0 93.5 39t37.5 96v35q0 56 -37.5 88t-96.5 32h-38q-17 0 -29 11t-13 29 q0 24 13 34l147 153h-223q-22 0 -34 11t-12 30q0 22 12 34t34 12h298q22 0 34 -11.5t12 -30.5q0 -12 -6 -23t-16 -18l-151 -157q87 -1 141 -52.5zM436 37q-19 -41 -48 -38q-25 1 -39 13.5t-14 32.5q0 12 8 30l561 1201q8 16 21 25.5t29 9.5q26 0 38.5 -12t12.5 -32 q0 -19 -9 -40zM1131.5 8q-11.5 12 -11.5 33v112h-247q-21 0 -33.5 13t-12.5 37q0 12 4 22l190 426q10 28 42 28q21 0 33 -9.5t12 -27.5q0 -10 -5 -25l-172 -375h189v87q0 22 11.5 33.5t33.5 11.5q44 0 44 -45v-87h45q21 0 32.5 -11t11.5 -33t-11.5 -33.5t-32.5 -11.5h-45 v-112q0 -21 -11.5 -33t-32.5 -12q-22 0 -33.5 12z" glyph-name="threequarters" horiz-adv-x="1367" unicode="¾"/>
<glyph d="M656 823.5q-26 -26.5 -63 -26.5q-38 0 -64 26.5t-26 64.5q0 37 26 63t64 26q37 0 63 -26t26 -63q0 -38 -26 -64.5zM628 608.5q16 -14.5 16 -39.5q-10 -84 -50.5 -140.5t-124.5 -122.5l-37 -32q-68 -57 -106.5 -94.5t-63.5 -81t-25 -90.5v-19q0 -70 35 -119.5t94.5 -75 t131.5 -25.5q90 0 154.5 33t126.5 102q3 3 13 11.5t19 13t18 4.5q26 0 43 -17.5t17 -44.5q0 -11 -5 -24t-15 -24q-154 -184 -374 -184q-108 0 -196.5 41.5t-140 119t-51.5 180.5v21q0 69 30 126.5t76 104t128 116.5l49 42q55 47 87 90.5t49 103.5q20 39 57 39q29 0 45 -14.5 z" glyph-name="questiondown" horiz-adv-x="940" unicode="¿"/>
<glyph d="M1010 55q0 -25 -17.5 -42t-50.5 -17q-20 0 -35.5 8.5t-21.5 27.5l-108 329h-512l-108 -329q-5 -18 -21.5 -27t-36.5 -9q-29 0 -47.5 17t-18.5 43q0 16 5 28l421 1194q14 36 63 36q23 0 39 -9t23 -26l420 -1195q6 -15 6 -29zM736 487l-215 656l-215 -656h430zM380 1631 q0 24 18 42.5t40 18.5q16 0 27 -5t20 -23l117 -168q6 -12 6 -26q0 -20 -13 -34.5t-34 -14.5t-38 17l-128 155q-15 16 -15 38z" glyph-name="Agrave" horiz-adv-x="1042" unicode="À"/>
<glyph d="M1010 55q0 -25 -17.5 -42t-50.5 -17q-20 0 -35.5 8.5t-21.5 27.5l-108 329h-512l-108 -329q-5 -18 -21.5 -27t-36.5 -9q-29 0 -47.5 17t-18.5 43q0 16 5 28l421 1194q14 36 63 36q23 0 39 -9t23 -26l420 -1195q6 -15 6 -29zM736 487l-215 656l-215 -656h430zM538 1441 q-17 -17 -38 -17t-34 14.5t-13 34.5q0 14 6 26l117 168q9 18 20 23t26 5q23 0 40.5 -18.5t17.5 -42.5q0 -22 -15 -38z" glyph-name="Aacute" horiz-adv-x="1042" unicode="Á"/>
<glyph d="M1010 55q0 -25 -17.5 -42t-50.5 -17q-20 0 -35.5 8.5t-21.5 27.5l-108 329h-512l-108 -329q-5 -18 -21.5 -27t-36.5 -9q-29 0 -47.5 17t-18.5 43q0 16 5 28l421 1194q14 36 63 36q23 0 39 -9t23 -26l420 -1195q6 -15 6 -29zM736 487l-215 656l-215 -656h430zM522 1544 l-127 -111q-9 -6 -16.5 -8.5t-18.5 -2.5q-18 0 -32.5 14.5t-14.5 29.5q0 14 7.5 24.5t24.5 23.5l138 120q19 15 39 15q18 0 39 -15l137 -120q18 -13 25 -23t7 -25q0 -14 -15.5 -29t-30.5 -15q-12 0 -19.5 2t-16.5 9z" glyph-name="Acircumflex" horiz-adv-x="1042" unicode="Â"/>
<glyph d="M1010 55q0 -25 -17.5 -42t-50.5 -17q-20 0 -35.5 8.5t-21.5 27.5l-108 329h-512l-108 -329q-5 -18 -21.5 -27t-36.5 -9q-29 0 -47.5 17t-18.5 43q0 16 5 28l421 1194q14 36 63 36q23 0 39 -9t23 -26l420 -1195q6 -15 6 -29zM736 487l-215 656l-215 -656h430z M742.5 1619.5q13.5 -13.5 13.5 -31.5q0 -12 -3 -21t-14 -20q-28 -32 -60.5 -48.5t-74.5 -16.5q-32 0 -54 9t-49 27q-23 14 -38 21t-36 7q-22 0 -40.5 -10.5t-41.5 -33.5q-9 -7 -14 -9.5t-13 -2.5q-20 0 -34 13.5t-14 31.5q0 12 4 21t15 20q30 32 61.5 48t70.5 16q33 0 55 -9 t49 -27q23 -14 38 -21t36 -7q43 0 82 45q13 12 27 12q21 0 34.5 -13.5z" glyph-name="Atilde" horiz-adv-x="1042" unicode="Ã"/>
<glyph d="M1010 55q0 -25 -17.5 -42t-50.5 -17q-20 0 -35.5 8.5t-21.5 27.5l-108 329h-512l-108 -329q-5 -18 -21.5 -27t-36.5 -9q-29 0 -47.5 17t-18.5 43q0 16 5 28l421 1194q14 36 63 36q23 0 39 -9t23 -26l420 -1195q6 -15 6 -29zM736 487l-215 656l-215 -656h430zM332 1589.5 q19 19.5 46 19.5q28 0 47.5 -19t19.5 -48q0 -27 -19.5 -46t-47.5 -19t-46.5 19t-18.5 46q0 28 19 47.5zM615.5 1589.5q19.5 19.5 46.5 19.5q28 0 47.5 -19.5t19.5 -47.5q0 -27 -19.5 -46t-47.5 -19q-27 0 -46.5 19t-19.5 46q0 28 19.5 47.5z" glyph-name="Adieresis" horiz-adv-x="1042" unicode="Ä"/>
<glyph d="M1010 55q0 -25 -17.5 -42t-50.5 -17q-20 0 -35.5 8.5t-21.5 27.5l-108 329h-512l-108 -329q-5 -18 -21.5 -27t-36.5 -9q-29 0 -47.5 17t-18.5 43q0 16 5 28l421 1194q14 36 63 36q23 0 39 -9t23 -26l420 -1195q6 -15 6 -29zM736 487l-215 656l-215 -656h430zM456.5 1485 q-29.5 18 -47 48t-17.5 65t17.5 65t47 47t64.5 17t65 -17t47.5 -47t17.5 -65t-17.5 -65t-47.5 -48t-65 -18t-64.5 18zM567.5 1551.5q19.5 19.5 19.5 46.5q0 26 -19.5 45.5t-45.5 19.5q-27 0 -46 -19.5t-19 -45.5q0 -28 19 -47t46 -19q26 0 45.5 19.5z" glyph-name="Aring" horiz-adv-x="1042" unicode="Å"/>
<glyph d="M1604.5 114q16.5 -17 16.5 -49q0 -31 -16.5 -48t-47.5 -17h-590q-29 0 -44 17.5t-15 49.5v234h-7h-555l-206 -276q-24 -29 -52 -29q-23 0 -43 17q-28 21 -28 48q0 22 18 43l874 1177q22 25 45 28q12 2 20 2h583q31 0 47.5 -16.5t16.5 -48.5t-16.5 -49.5t-47.5 -17.5h-518 v-444h405q32 0 48.5 -16t16.5 -46t-16.5 -45.5t-48.5 -15.5h-405v-481h518q31 0 47.5 -17zM908 436v620l-462 -620h455h7z" glyph-name="AE" horiz-adv-x="1708" unicode="Æ"/>
<glyph d="M879 201q19 -20 19 -46q0 -30 -27 -50q-69 -55 -140.5 -85.5t-171.5 -34.5l-11 -35q72 -8 113 -42t41 -91q0 -56 -41.5 -97.5t-117.5 -64.5l-33 -10q-8 -2 -13 -2q-17 0 -28 12.5t-12 31.5q0 25 26 32l24 8q53 16 81 36t28 51q0 34 -23 50t-79 23q-33 2 -33 31q0 8 1 13 l12 54q-109 9 -197.5 69t-139 156t-50.5 208v473q0 119 55 219t151.5 158t216.5 58q106 0 183.5 -29t157.5 -92q27 -20 27 -50q0 -26 -19 -46t-44 -20q-21 0 -51 20q-61 44 -117.5 65t-138.5 21q-80 0 -146 -39t-105 -109.5t-39 -160.5v-463q0 -90 39.5 -160t106.5 -109 t146 -39t137 21t117 65q16 10 27.5 15t23.5 5q25 0 44 -20z" glyph-name="Ccedilla" horiz-adv-x="979" unicode="Ç"/>
<glyph d="M254 0q-30 0 -45 17.5t-15 49.5v1179q0 32 17.5 48.5t49.5 16.5h582q32 0 48.5 -16.5t16.5 -48.5t-17 -49.5t-48 -17.5h-517v-444h405q32 0 48.5 -16t16.5 -46t-16.5 -45.5t-48.5 -15.5h-405v-481h517q32 0 48.5 -17t16.5 -49q0 -31 -16.5 -48t-48.5 -17h-589zM409 1631 q0 24 18 42.5t40 18.5q16 0 27 -5t20 -23l117 -168q6 -12 6 -26q0 -20 -13 -34.5t-34 -14.5t-38 17l-128 155q-15 16 -15 38z" glyph-name="Egrave" horiz-adv-x="995" unicode="È"/>
<glyph d="M254 0q-30 0 -45 17.5t-15 49.5v1179q0 32 17.5 48.5t49.5 16.5h582q32 0 48.5 -16.5t16.5 -48.5t-17 -49.5t-48 -17.5h-517v-444h405q32 0 48.5 -16t16.5 -46t-16.5 -45.5t-48.5 -15.5h-405v-481h517q32 0 48.5 -17t16.5 -49q0 -31 -16.5 -48t-48.5 -17h-589zM566 1441 q-17 -17 -38 -17t-34 14.5t-13 34.5q0 14 6 26l117 168q9 18 20 23t26 5q23 0 40.5 -18.5t17.5 -42.5q0 -22 -15 -38z" glyph-name="Eacute" horiz-adv-x="995" unicode="É"/>
<glyph d="M254 0q-30 0 -45 17.5t-15 49.5v1179q0 32 17.5 48.5t49.5 16.5h582q32 0 48.5 -16.5t16.5 -48.5t-17 -49.5t-48 -17.5h-517v-444h405q32 0 48.5 -16t16.5 -46t-16.5 -45.5t-48.5 -15.5h-405v-481h517q32 0 48.5 -17t16.5 -49q0 -31 -16.5 -48t-48.5 -17h-589zM551 1544 l-127 -111q-9 -6 -16.5 -8.5t-18.5 -2.5q-18 0 -32.5 14.5t-14.5 29.5q0 14 7.5 24.5t24.5 23.5l138 120q19 15 39 15q18 0 39 -15l137 -120q18 -13 25 -23t7 -25q0 -14 -15.5 -29t-30.5 -15q-12 0 -19.5 2t-16.5 9z" glyph-name="Ecircumflex" horiz-adv-x="995" unicode="Ê"/>
<glyph d="M254 0q-30 0 -45 17.5t-15 49.5v1179q0 32 17.5 48.5t49.5 16.5h582q32 0 48.5 -16.5t16.5 -48.5t-17 -49.5t-48 -17.5h-517v-444h405q32 0 48.5 -16t16.5 -46t-16.5 -45.5t-48.5 -15.5h-405v-481h517q32 0 48.5 -17t16.5 -49q0 -31 -16.5 -48t-48.5 -17h-589z M361 1589.5q19 19.5 46 19.5q28 0 47.5 -19t19.5 -48q0 -27 -19.5 -46t-47.5 -19t-46.5 19t-18.5 46q0 28 19 47.5zM644.5 1589.5q19.5 19.5 46.5 19.5q28 0 47.5 -19.5t19.5 -47.5q0 -27 -19.5 -46t-47.5 -19q-27 0 -46.5 19t-19.5 46q0 28 19.5 47.5z" glyph-name="Edieresis" horiz-adv-x="995" unicode="Ë"/>
<glyph d="M326 61q0 -31 -17.5 -48t-49.5 -17q-31 0 -48 17t-17 48v1189q0 64 65 64q67 0 67 -64v-1189zM118 1631q0 24 18 42.5t40 18.5q16 0 27 -5t20 -23l117 -168q6 -12 6 -26q0 -20 -13 -34.5t-34 -14.5t-38 17l-128 155q-15 16 -15 38z" glyph-name="Igrave" horiz-adv-x="520" unicode="Ì"/>
<glyph d="M326 61q0 -31 -17.5 -48t-49.5 -17q-31 0 -48 17t-17 48v1189q0 64 65 64q67 0 67 -64v-1189zM275 1441q-17 -17 -38 -17t-34 14.5t-13 34.5q0 14 6 26l117 168q9 18 20 23t26 5q23 0 40.5 -18.5t17.5 -42.5q0 -22 -15 -38z" glyph-name="Iacute" horiz-adv-x="520" unicode="Í"/>
<glyph d="M326 61q0 -31 -17.5 -48t-49.5 -17q-31 0 -48 17t-17 48v1189q0 64 65 64q67 0 67 -64v-1189zM260 1544l-127 -111q-9 -6 -16.5 -8.5t-18.5 -2.5q-18 0 -32.5 14.5t-14.5 29.5q0 14 7.5 24.5t24.5 23.5l138 120q19 15 39 15q18 0 39 -15l137 -120q18 -13 25 -23t7 -25 q0 -14 -15.5 -29t-30.5 -15q-12 0 -19.5 2t-16.5 9z" glyph-name="Icircumflex" horiz-adv-x="520" unicode="Î"/>
<glyph d="M326 61q0 -31 -17.5 -48t-49.5 -17q-31 0 -48 17t-17 48v1189q0 64 65 64q67 0 67 -64v-1189zM70 1589.5q19 19.5 46 19.5q28 0 47.5 -19t19.5 -48q0 -27 -19.5 -46t-47.5 -19t-46.5 19t-18.5 46q0 28 19 47.5zM353.5 1589.5q19.5 19.5 46.5 19.5q28 0 47.5 -19.5 t19.5 -47.5q0 -27 -19.5 -46t-47.5 -19q-27 0 -46.5 19t-19.5 46q0 28 19.5 47.5z" glyph-name="Idieresis" horiz-adv-x="520" unicode="Ï"/>
<glyph d="M788.5 1252q100.5 -59 157.5 -158.5t57 -213.5v-451q0 -114 -57 -212.5t-156.5 -157t-221.5 -59.5h-3h-4h-301h-1q-31 0 -48 16.5t-17 47.5v542h-146q-48 0 -48 51q0 47 48 47h146v542q0 32 16.5 48.5t48.5 16.5h1h304h1q123 0 223.5 -59zM872 879q0 83 -42 152 t-112.5 109t-152.5 40h-1h-239v-476h157q50 0 50 -47q0 -51 -50 -51h-157v-475h238h2q85 0 155 40t111 109t41 151v448z" glyph-name="Eth" horiz-adv-x="1110" unicode="Ð"/>
<glyph d="M1062 1306q16 -17 16 -49v-1207q0 -27 -16.5 -41.5t-40.5 -14.5q-40 0 -57 27l-638 1024v-983q0 -33 -17 -50.5t-50 -17.5q-32 0 -48.5 18t-16.5 50v1200q0 26 18.5 43.5t44.5 17.5q39 0 57 -28l633 -1015v977q0 31 17 48.5t50 17.5q32 0 48 -17zM857.5 1619.5 q13.5 -13.5 13.5 -31.5q0 -12 -3 -21t-14 -20q-28 -32 -60.5 -48.5t-74.5 -16.5q-32 0 -54 9t-49 27q-23 14 -38 21t-36 7q-22 0 -40.5 -10.5t-41.5 -33.5q-9 -7 -14 -9.5t-13 -2.5q-20 0 -34 13.5t-14 31.5q0 12 4 21t15 20q30 32 61.5 48t70.5 16q33 0 55 -9t49 -27 q23 -14 38 -21t36 -7q43 0 82 45q13 12 27 12q21 0 34.5 -13.5z" glyph-name="Ntilde" horiz-adv-x="1273" unicode="Ñ"/>
<glyph d="M107 893q0 120 56.5 219.5t155 157t219.5 57.5q124 0 223 -57.5t155 -156.5t56 -220v-477q0 -121 -56.5 -219.5t-156 -155.5t-221.5 -57q-120 0 -218.5 57t-155.5 156t-57 219v477zM238 422q0 -91 40.5 -161t109 -108t150.5 -38q85 0 154 38t109 107.5t40 161.5v467 q0 91 -40.5 161t-109.5 108t-153 38q-82 0 -150.5 -38t-109 -108t-40.5 -161v-467zM399 1631q0 24 18 42.5t40 18.5q16 0 27 -5t20 -23l117 -168q6 -12 6 -26q0 -20 -13 -34.5t-34 -14.5t-38 17l-128 155q-15 16 -15 38z" glyph-name="Ograve" horiz-adv-x="1079" unicode="Ò"/>
<glyph d="M107 893q0 120 56.5 219.5t155 157t219.5 57.5q124 0 223 -57.5t155 -156.5t56 -220v-477q0 -121 -56.5 -219.5t-156 -155.5t-221.5 -57q-120 0 -218.5 57t-155.5 156t-57 219v477zM238 422q0 -91 40.5 -161t109 -108t150.5 -38q85 0 154 38t109 107.5t40 161.5v467 q0 91 -40.5 161t-109.5 108t-153 38q-82 0 -150.5 -38t-109 -108t-40.5 -161v-467zM556 1441q-17 -17 -38 -17t-34 14.5t-13 34.5q0 14 6 26l117 168q9 18 20 23t26 5q23 0 40.5 -18.5t17.5 -42.5q0 -22 -15 -38z" glyph-name="Oacute" horiz-adv-x="1079" unicode="Ó"/>
<glyph d="M107 893q0 120 56.5 219.5t155 157t219.5 57.5q124 0 223 -57.5t155 -156.5t56 -220v-477q0 -121 -56.5 -219.5t-156 -155.5t-221.5 -57q-120 0 -218.5 57t-155.5 156t-57 219v477zM238 422q0 -91 40.5 -161t109 -108t150.5 -38q85 0 154 38t109 107.5t40 161.5v467 q0 91 -40.5 161t-109.5 108t-153 38q-82 0 -150.5 -38t-109 -108t-40.5 -161v-467zM541 1544l-127 -111q-9 -6 -16.5 -8.5t-18.5 -2.5q-18 0 -32.5 14.5t-14.5 29.5q0 14 7.5 24.5t24.5 23.5l138 120q19 15 39 15q18 0 39 -15l137 -120q18 -13 25 -23t7 -25q0 -14 -15.5 -29 t-30.5 -15q-12 0 -19.5 2t-16.5 9z" glyph-name="Ocircumflex" horiz-adv-x="1079" unicode="Ô"/>
<glyph d="M107 893q0 120 56.5 219.5t155 157t219.5 57.5q124 0 223 -57.5t155 -156.5t56 -220v-477q0 -121 -56.5 -219.5t-156 -155.5t-221.5 -57q-120 0 -218.5 57t-155.5 156t-57 219v477zM238 422q0 -91 40.5 -161t109 -108t150.5 -38q85 0 154 38t109 107.5t40 161.5v467 q0 91 -40.5 161t-109.5 108t-153 38q-82 0 -150.5 -38t-109 -108t-40.5 -161v-467zM761.5 1619.5q13.5 -13.5 13.5 -31.5q0 -12 -3 -21t-14 -20q-28 -32 -60.5 -48.5t-74.5 -16.5q-32 0 -54 9t-49 27q-23 14 -38 21t-36 7q-22 0 -40.5 -10.5t-41.5 -33.5q-9 -7 -14 -9.5 t-13 -2.5q-20 0 -34 13.5t-14 31.5q0 12 4 21t15 20q30 32 61.5 48t70.5 16q33 0 55 -9t49 -27q23 -14 38 -21t36 -7q43 0 82 45q13 12 27 12q21 0 34.5 -13.5z" glyph-name="Otilde" horiz-adv-x="1079" unicode="Õ"/>
<glyph d="M107 893q0 120 56.5 219.5t155 157t219.5 57.5q124 0 223 -57.5t155 -156.5t56 -220v-477q0 -121 -56.5 -219.5t-156 -155.5t-221.5 -57q-120 0 -218.5 57t-155.5 156t-57 219v477zM238 422q0 -91 40.5 -161t109 -108t150.5 -38q85 0 154 38t109 107.5t40 161.5v467 q0 91 -40.5 161t-109.5 108t-153 38q-82 0 -150.5 -38t-109 -108t-40.5 -161v-467zM351 1589.5q19 19.5 46 19.5q28 0 47.5 -19t19.5 -48q0 -27 -19.5 -46t-47.5 -19t-46.5 19t-18.5 46q0 28 19 47.5zM634.5 1589.5q19.5 19.5 46.5 19.5q28 0 47.5 -19.5t19.5 -47.5 q0 -27 -19.5 -46t-47.5 -19q-27 0 -46.5 19t-19.5 46q0 28 19.5 47.5z" glyph-name="Odieresis" horiz-adv-x="1079" unicode="Ö"/>
<glyph d="M908 96q0 -21 -21 -41q-21 -22 -42 -22t-41 21l-320 323l-318 -322q-22 -22 -44 -22t-43 21q-20 20 -20 40q0 21 21 44l320 324l-317 321q-21 21 -21 42t22 42q21 21 42 21t43 -22l315 -318l313 317q22 22 44 22q20 0 42 -20q21 -21 21 -43t-21 -43l-315 -319l319 -322 q21 -21 21 -44z" glyph-name="multiply" horiz-adv-x="960" unicode="×"/>
<glyph d="M945.5 1048q26.5 -73 26.5 -155v-477q0 -121 -56.5 -219.5t-156 -155.5t-221.5 -57q-118 0 -218 57l-37 -76q-21 -31 -53 -31q-26 0 -38.5 14t-12.5 36q0 28 16 58l34 69q-58 60 -90 138t-32 167v477q0 120 56.5 219.5t155 157t219.5 57.5q136 0 244 -70l37 77 q18 32 53 29q25 -1 39 -15.5t14 -36.5q0 -23 -15 -49l-40 -83q49 -58 75.5 -131zM291 241l433 896q-38 29 -86 44t-100 15q-82 0 -150.5 -38t-109 -108t-40.5 -161v-467q0 -104 53 -181zM841 889q0 88 -37 154l-427 -884q74 -44 161 -44q85 0 154 38t109 107.5t40 161.5v467 z" glyph-name="Oslash" horiz-adv-x="1079" unicode="Ø"/>
<glyph d="M360 41.5q-97 57.5 -154.5 156.5t-57.5 218v834q0 31 17 47.5t48 16.5q32 0 49 -16.5t17 -47.5v-828q0 -92 39 -161.5t106.5 -107.5t149.5 -38q84 0 151 38t105 107.5t38 161.5v828q0 31 17 47.5t49 16.5q31 0 48 -16.5t17 -47.5v-834q0 -121 -55 -219.5t-152.5 -155.5 t-220.5 -57q-114 0 -211 57.5zM430 1631q0 24 18 42.5t40 18.5q16 0 27 -5t20 -23l117 -168q6 -12 6 -26q0 -20 -13 -34.5t-34 -14.5t-38 17l-128 155q-15 16 -15 38z" glyph-name="Ugrave" horiz-adv-x="1147" unicode="Ù"/>
<glyph d="M360 41.5q-97 57.5 -154.5 156.5t-57.5 218v834q0 31 17 47.5t48 16.5q32 0 49 -16.5t17 -47.5v-828q0 -92 39 -161.5t106.5 -107.5t149.5 -38q84 0 151 38t105 107.5t38 161.5v828q0 31 17 47.5t49 16.5q31 0 48 -16.5t17 -47.5v-834q0 -121 -55 -219.5t-152.5 -155.5 t-220.5 -57q-114 0 -211 57.5zM587 1441q-17 -17 -38 -17t-34 14.5t-13 34.5q0 14 6 26l117 168q9 18 20 23t26 5q23 0 40.5 -18.5t17.5 -42.5q0 -22 -15 -38z" glyph-name="Uacute" horiz-adv-x="1147" unicode="Ú"/>
<glyph d="M360 41.5q-97 57.5 -154.5 156.5t-57.5 218v834q0 31 17 47.5t48 16.5q32 0 49 -16.5t17 -47.5v-828q0 -92 39 -161.5t106.5 -107.5t149.5 -38q84 0 151 38t105 107.5t38 161.5v828q0 31 17 47.5t49 16.5q31 0 48 -16.5t17 -47.5v-834q0 -121 -55 -219.5t-152.5 -155.5 t-220.5 -57q-114 0 -211 57.5zM572 1544l-127 -111q-9 -6 -16.5 -8.5t-18.5 -2.5q-18 0 -32.5 14.5t-14.5 29.5q0 14 7.5 24.5t24.5 23.5l138 120q19 15 39 15q18 0 39 -15l137 -120q18 -13 25 -23t7 -25q0 -14 -15.5 -29t-30.5 -15q-12 0 -19.5 2t-16.5 9z" glyph-name="Ucircumflex" horiz-adv-x="1147" unicode="Û"/>
<glyph d="M360 41.5q-97 57.5 -154.5 156.5t-57.5 218v834q0 31 17 47.5t48 16.5q32 0 49 -16.5t17 -47.5v-828q0 -92 39 -161.5t106.5 -107.5t149.5 -38q84 0 151 38t105 107.5t38 161.5v828q0 31 17 47.5t49 16.5q31 0 48 -16.5t17 -47.5v-834q0 -121 -55 -219.5t-152.5 -155.5 t-220.5 -57q-114 0 -211 57.5zM382 1589.5q19 19.5 46 19.5q28 0 47.5 -19t19.5 -48q0 -27 -19.5 -46t-47.5 -19t-46.5 19t-18.5 46q0 28 19 47.5zM665.5 1589.5q19.5 19.5 46.5 19.5q28 0 47.5 -19.5t19.5 -47.5q0 -27 -19.5 -46t-47.5 -19q-27 0 -46.5 19t-19.5 46 q0 28 19.5 47.5z" glyph-name="Udieresis" horiz-adv-x="1147" unicode="Ü"/>
<glyph d="M934 1295q18 -19 18 -46q0 -20 -12 -41l-388 -665v-482q0 -31 -16.5 -48t-48.5 -17t-49 17t-17 48v481l-387 666q-13 20 -13 42q0 26 18.5 45t44.5 19q36 0 54 -33l349 -621l348 621q17 33 55 33q26 0 44 -19zM503 1441q-17 -17 -38 -17t-34 14.5t-13 34.5q0 14 6 26 l117 168q9 18 20 23t26 5q23 0 40.5 -18.5t17.5 -42.5q0 -22 -15 -38z" glyph-name="Yacute" horiz-adv-x="973" unicode="Ý"/>
<glyph d="M210.5 12.5q-16.5 16.5 -16.5 48.5v1189q0 64 65 64q31 0 47.5 -13.5t16.5 -40.5v-160h170q229 0 351.5 -106t122.5 -322v-22q0 -212 -122.5 -316.5t-352.5 -104.5h-167v-170q0 -31 -17 -47t-49 -16t-48.5 16.5zM494 360q174 0 258 71t84 229v16q0 152 -83.5 222.5 t-256.5 70.5h-171v-609h169z" glyph-name="Thorn" horiz-adv-x="1074" unicode="Þ"/>
<glyph d="M561 -1.5q-50 14.5 -104 37.5q-20 6 -30.5 22t-10.5 38q0 24 15.5 42t39.5 16l32 -12q49 -19 85 -29t80 -10q83 0 130 46.5t47 130.5q0 61 -36 116t-115 107q-73 47 -114.5 97t-41.5 120q0 57 23 98t67 94q33 36 53 73t20 81t-23 84.5t-65 65.5t-96 25q-66 0 -115 -30 t-75 -84t-26 -124v-940q0 -32 -16.5 -49.5t-46.5 -17.5q-29 0 -45 17.5t-16 49.5v951q0 97 42.5 176t121 125t181.5 46q85 0 154.5 -41t109.5 -107.5t40 -138.5q0 -59 -23.5 -108.5t-58.5 -83.5q-43 -48 -62.5 -78.5t-19.5 -68.5q0 -43 29.5 -77.5t94.5 -78.5 q92 -63 137.5 -135t45.5 -162q0 -140 -77 -219t-211 -79q-70 0 -120 14.5z" glyph-name="germandbls" horiz-adv-x="1087" unicode="ß"/>
<glyph d="M629.5 937q73.5 -40 111.5 -114t38 -176v-532q0 -34 -10 -49t-46 -29q-57 -24 -139 -38.5t-171 -14.5q-98 0 -170.5 35t-111.5 100.5t-39 155.5v4q0 146 86.5 219t238.5 73q131 0 240 -37v106q0 105 -56.5 160.5t-154.5 55.5q-97 0 -188 -38q-5 -1 -16.5 -4.5t-22.5 -3.5 q-20 0 -34.5 18t-14.5 40q0 20 8.5 34t29.5 23q52 24 115 38t130 14q103 0 176.5 -40zM657 132v304q-47 15 -106 24t-118 9q-104 0 -161.5 -45t-57.5 -137v-2q0 -92 56 -144t158 -52q115 0 229 43zM323 1326q0 24 18 42.5t40 18.5q16 0 27 -5t20 -23l117 -168q6 -12 6 -26 q0 -20 -13 -34.5t-34 -14.5t-38 17l-128 155q-15 16 -15 38z" glyph-name="agrave" horiz-adv-x="930" unicode="à"/>
<glyph d="M629.5 937q73.5 -40 111.5 -114t38 -176v-532q0 -34 -10 -49t-46 -29q-57 -24 -139 -38.5t-171 -14.5q-98 0 -170.5 35t-111.5 100.5t-39 155.5v4q0 146 86.5 219t238.5 73q131 0 240 -37v106q0 105 -56.5 160.5t-154.5 55.5q-97 0 -188 -38q-5 -1 -16.5 -4.5t-22.5 -3.5 q-20 0 -34.5 18t-14.5 40q0 20 8.5 34t29.5 23q52 24 115 38t130 14q103 0 176.5 -40zM657 132v304q-47 15 -106 24t-118 9q-104 0 -161.5 -45t-57.5 -137v-2q0 -92 56 -144t158 -52q115 0 229 43zM480 1130q-17 -17 -38 -17t-34 14.5t-13 34.5q0 14 6 26l117 168 q9 18 20 23t26 5q23 0 40.5 -18.5t17.5 -42.5q0 -22 -15 -38z" glyph-name="aacute" horiz-adv-x="930" unicode="á"/>
<glyph d="M629.5 937q73.5 -40 111.5 -114t38 -176v-532q0 -34 -10 -49t-46 -29q-57 -24 -139 -38.5t-171 -14.5q-98 0 -170.5 35t-111.5 100.5t-39 155.5v4q0 146 86.5 219t238.5 73q131 0 240 -37v106q0 105 -56.5 160.5t-154.5 55.5q-97 0 -188 -38q-5 -1 -16.5 -4.5t-22.5 -3.5 q-20 0 -34.5 18t-14.5 40q0 20 8.5 34t29.5 23q52 24 115 38t130 14q103 0 176.5 -40zM657 132v304q-47 15 -106 24t-118 9q-104 0 -161.5 -45t-57.5 -137v-2q0 -92 56 -144t158 -52q115 0 229 43zM464 1267l-126 -111q-9 -7 -16.5 -9.5t-19.5 -2.5q-21 0 -33.5 13.5 t-12.5 31.5q0 14 7 24t24 23l138 120q19 15 39 15q19 0 40 -15l137 -120q18 -13 24.5 -23t6.5 -24q0 -17 -14 -31t-32 -14q-11 0 -19 2.5t-17 9.5z" glyph-name="acircumflex" horiz-adv-x="930" unicode="â"/>
<glyph d="M629.5 937q73.5 -40 111.5 -114t38 -176v-532q0 -34 -10 -49t-46 -29q-57 -24 -139 -38.5t-171 -14.5q-98 0 -170.5 35t-111.5 100.5t-39 155.5v4q0 146 86.5 219t238.5 73q131 0 240 -37v106q0 105 -56.5 160.5t-154.5 55.5q-97 0 -188 -38q-5 -1 -16.5 -4.5t-22.5 -3.5 q-20 0 -34.5 18t-14.5 40q0 20 8.5 34t29.5 23q52 24 115 38t130 14q103 0 176.5 -40zM657 132v304q-47 15 -106 24t-118 9q-104 0 -161.5 -45t-57.5 -137v-2q0 -92 56 -144t158 -52q115 0 229 43zM693.5 1294.5q13.5 -13.5 13.5 -31.5q0 -12 -3 -21t-14 -20 q-28 -32 -60.5 -48.5t-74.5 -16.5q-32 0 -54 9t-49 27q-23 14 -38 21t-36 7q-22 0 -40.5 -10.5t-41.5 -33.5q-9 -7 -14 -9.5t-13 -2.5q-20 0 -34 13.5t-14 31.5q0 12 4 21t15 20q30 32 61.5 48t70.5 16q33 0 55 -9t49 -27q23 -14 38 -21t36 -7q43 0 82 45q13 12 27 12 q21 0 34.5 -13.5z" glyph-name="atilde" horiz-adv-x="930" unicode="ã"/>
<glyph d="M629.5 937q73.5 -40 111.5 -114t38 -176v-532q0 -34 -10 -49t-46 -29q-57 -24 -139 -38.5t-171 -14.5q-98 0 -170.5 35t-111.5 100.5t-39 155.5v4q0 146 86.5 219t238.5 73q131 0 240 -37v106q0 105 -56.5 160.5t-154.5 55.5q-97 0 -188 -38q-5 -1 -16.5 -4.5t-22.5 -3.5 q-20 0 -34.5 18t-14.5 40q0 20 8.5 34t29.5 23q52 24 115 38t130 14q103 0 176.5 -40zM657 132v304q-47 15 -106 24t-118 9q-104 0 -161.5 -45t-57.5 -137v-2q0 -92 56 -144t158 -52q115 0 229 43zM275 1273.5q19 19.5 46 19.5q28 0 47.5 -19t19.5 -48q0 -27 -19.5 -46 t-47.5 -19t-46.5 19t-18.5 46q0 28 19 47.5zM558.5 1273.5q19.5 19.5 46.5 19.5q28 0 47.5 -19.5t19.5 -47.5q0 -27 -19.5 -46t-47.5 -19q-27 0 -46.5 19t-19.5 46q0 28 19.5 47.5z" glyph-name="adieresis" horiz-adv-x="930" unicode="ä"/>
<glyph d="M629.5 937q73.5 -40 111.5 -114t38 -176v-532q0 -34 -10 -49t-46 -29q-57 -24 -139 -38.5t-171 -14.5q-98 0 -170.5 35t-111.5 100.5t-39 155.5v4q0 146 86.5 219t238.5 73q131 0 240 -37v106q0 105 -56.5 160.5t-154.5 55.5q-97 0 -188 -38q-5 -1 -16.5 -4.5t-22.5 -3.5 q-20 0 -34.5 18t-14.5 40q0 20 8.5 34t29.5 23q52 24 115 38t130 14q103 0 176.5 -40zM657 132v304q-47 15 -106 24t-118 9q-104 0 -161.5 -45t-57.5 -137v-2q0 -92 56 -144t158 -52q115 0 229 43zM398.5 1134q-29.5 18 -47 48t-17.5 65t17.5 65t47 47t64.5 17t65 -17 t47.5 -47t17.5 -65t-17.5 -65t-47.5 -48t-65 -18t-64.5 18zM509.5 1200.5q19.5 19.5 19.5 46.5q0 26 -19.5 45.5t-45.5 19.5q-27 0 -46 -19.5t-19 -45.5q0 -28 19 -47t46 -19q26 0 45.5 19.5z" glyph-name="aring" horiz-adv-x="930" unicode="å"/>
<glyph d="M1194.5 930q81.5 -47 128 -126t46.5 -170v-135q0 -25 -14.5 -41t-40.5 -16h-534v-115q0 -61 30.5 -113.5t84 -83.5t119.5 -31q42 0 77.5 9t57 19t57.5 29q7 3 17.5 8.5t21.5 5.5q26 0 41.5 -18t15.5 -41q0 -14 -6.5 -27t-18.5 -21q-43 -29 -112 -54t-152 -25 q-70 0 -131.5 23t-109.5 65q-5 -10 -16.5 -18.5t-32.5 -16.5q-57 -24 -139 -38.5t-171 -14.5q-98 0 -170.5 35t-111.5 100.5t-39 155.5v4q0 146 86.5 219t238.5 73q131 0 240 -37v106q0 105 -56.5 160.5t-154.5 55.5q-97 0 -188 -38q-5 -1 -16.5 -4.5t-22.5 -3.5 q-20 0 -34.5 18t-14.5 40q0 20 8.5 34t29.5 23q52 24 115 38t130 14q96 0 166 -34.5t110 -98.5q48 62 121.5 97.5t162.5 35.5q100 0 181.5 -47zM780 544h470v100q0 62 -32 113t-86 80.5t-119 29.5t-118 -28.5t-84 -79.5t-31 -115v-100zM657 132v304q-47 15 -106 24t-118 9 q-104 0 -161.5 -45t-57.5 -137v-2q0 -92 56 -144t158 -52q115 0 229 43z" glyph-name="ae" horiz-adv-x="1447" unicode="æ"/>
<glyph d="M745.5 150.5q14.5 -17.5 14.5 -39.5q0 -27 -24 -45q-52 -36 -107 -57.5t-141 -24.5l-13 -41q72 -8 112.5 -42t40.5 -91q0 -56 -41 -97.5t-117 -64.5l-33 -10q-10 -2 -13 -2q-17 0 -28.5 12.5t-11.5 31.5q-1 10 5 19t20 13l25 8q53 16 81 36t28 51q0 34 -23 50t-79 23 q-34 2 -34 32q0 8 1 12l15 63q-90 11 -159 58t-107.5 119t-38.5 155v322q0 92 46.5 169t128.5 122t183 45q86 0 148.5 -24t111.5 -59q24 -18 24 -45q0 -22 -14.5 -39.5t-32.5 -17.5q-13 -1 -20 0t-14 3.5t-11 3.5q-40 25 -86.5 41t-110.5 16q-63 0 -116 -28.5t-83.5 -78.5 t-30.5 -111v-316q0 -59 29.5 -109t82.5 -79.5t118 -29.5t110 16t87 42q12 4 21 6t24 1q18 -1 32.5 -18.5z" glyph-name="ccedilla" horiz-adv-x="842" unicode="ç"/>
<glyph d="M652.5 930q81.5 -47 128 -126t46.5 -170v-135q0 -25 -14.5 -41t-40.5 -16h-534v-115q0 -61 30.5 -113.5t84 -83.5t119.5 -31q42 0 77.5 9t57 19t57.5 29q7 3 17.5 8.5t21.5 5.5q26 0 41.5 -18t15.5 -41q0 -14 -6.5 -27t-18.5 -21q-43 -29 -112 -54t-152 -25 q-100 0 -180.5 45.5t-126.5 121.5t-46 165v325q0 92 45.5 169t126.5 122t181 45t181.5 -47zM238 544h470v100q0 62 -32 113t-86 80.5t-119 29.5t-118 -28.5t-84 -79.5t-31 -115v-100zM323 1326q0 24 18 42.5t40 18.5q16 0 27 -5t20 -23l117 -168q6 -12 6 -26 q0 -20 -13 -34.5t-34 -14.5t-38 17l-128 155q-15 16 -15 38z" glyph-name="egrave" horiz-adv-x="905" unicode="è"/>
<glyph d="M652.5 930q81.5 -47 128 -126t46.5 -170v-135q0 -25 -14.5 -41t-40.5 -16h-534v-115q0 -61 30.5 -113.5t84 -83.5t119.5 -31q42 0 77.5 9t57 19t57.5 29q7 3 17.5 8.5t21.5 5.5q26 0 41.5 -18t15.5 -41q0 -14 -6.5 -27t-18.5 -21q-43 -29 -112 -54t-152 -25 q-100 0 -180.5 45.5t-126.5 121.5t-46 165v325q0 92 45.5 169t126.5 122t181 45t181.5 -47zM238 544h470v100q0 62 -32 113t-86 80.5t-119 29.5t-118 -28.5t-84 -79.5t-31 -115v-100zM480 1130q-17 -17 -38 -17t-34 14.5t-13 34.5q0 14 6 26l117 168q9 18 20 23t26 5 q23 0 40.5 -18.5t17.5 -42.5q0 -22 -15 -38z" glyph-name="eacute" horiz-adv-x="905" unicode="é"/>
<glyph d="M652.5 930q81.5 -47 128 -126t46.5 -170v-135q0 -25 -14.5 -41t-40.5 -16h-534v-115q0 -61 30.5 -113.5t84 -83.5t119.5 -31q42 0 77.5 9t57 19t57.5 29q7 3 17.5 8.5t21.5 5.5q26 0 41.5 -18t15.5 -41q0 -14 -6.5 -27t-18.5 -21q-43 -29 -112 -54t-152 -25 q-100 0 -180.5 45.5t-126.5 121.5t-46 165v325q0 92 45.5 169t126.5 122t181 45t181.5 -47zM238 544h470v100q0 62 -32 113t-86 80.5t-119 29.5t-118 -28.5t-84 -79.5t-31 -115v-100zM463 1267l-126 -111q-9 -7 -16.5 -9.5t-19.5 -2.5q-21 0 -33.5 13.5t-12.5 31.5 q0 14 7 24t24 23l138 120q19 15 39 15q19 0 40 -15l137 -120q18 -13 24.5 -23t6.5 -24q0 -17 -14 -31t-32 -14q-11 0 -19 2.5t-17 9.5z" glyph-name="ecircumflex" horiz-adv-x="905" unicode="ê"/>
<glyph d="M652.5 930q81.5 -47 128 -126t46.5 -170v-135q0 -25 -14.5 -41t-40.5 -16h-534v-115q0 -61 30.5 -113.5t84 -83.5t119.5 -31q42 0 77.5 9t57 19t57.5 29q7 3 17.5 8.5t21.5 5.5q26 0 41.5 -18t15.5 -41q0 -14 -6.5 -27t-18.5 -21q-43 -29 -112 -54t-152 -25 q-100 0 -180.5 45.5t-126.5 121.5t-46 165v325q0 92 45.5 169t126.5 122t181 45t181.5 -47zM238 544h470v100q0 62 -32 113t-86 80.5t-119 29.5t-118 -28.5t-84 -79.5t-31 -115v-100zM274 1273.5q19 19.5 46 19.5q28 0 47.5 -19t19.5 -48q0 -27 -19.5 -46t-47.5 -19 t-46.5 19t-18.5 46q0 28 19 47.5zM557.5 1273.5q19.5 19.5 46.5 19.5q28 0 47.5 -19.5t19.5 -47.5q0 -27 -19.5 -46t-47.5 -19q-27 0 -46.5 19t-19.5 46q0 28 19.5 47.5z" glyph-name="edieresis" horiz-adv-x="905" unicode="ë"/>
<glyph d="M347 898v0v-840q0 -30 -15.5 -46t-45.5 -16t-46 16t-16 46v785h-108q-28 0 -43 15t-15 44q0 58 58 58h168h1h1q53 0 60 -46q1 -4 1 -15v-1zM107 1323q0 24 18 42.5t40 18.5q16 0 27 -5t20 -23l117 -168q6 -12 6 -26q0 -20 -13 -34.5t-34 -14.5t-38 17l-128 155 q-15 16 -15 38z" glyph-name="igrave" horiz-adv-x="514" unicode="ì"/>
<glyph d="M347 898v0v-840q0 -30 -15.5 -46t-45.5 -16t-46 16t-16 46v785h-108q-28 0 -43 15t-15 44q0 58 58 58h168h1h1q53 0 60 -46q1 -4 1 -15v-1zM264 1127q-17 -17 -38 -17t-34 14.5t-13 34.5q0 14 6 26l117 168q9 18 20 23t26 5q23 0 40.5 -18.5t17.5 -42.5q0 -22 -15 -38z " glyph-name="iacute" horiz-adv-x="514" unicode="í"/>
<glyph d="M347 898v0v-840q0 -30 -15.5 -46t-45.5 -16t-46 16t-16 46v785h-108q-28 0 -43 15t-15 44q0 58 58 58h168h1h1q53 0 60 -46q1 -4 1 -15v-1zM248 1264l-126 -111q-9 -7 -16.5 -9.5t-19.5 -2.5q-21 0 -33.5 13.5t-12.5 31.5q0 14 7 24t24 23l138 120q19 15 39 15 q19 0 40 -15l137 -120q18 -13 24.5 -23t6.5 -24q0 -17 -14 -31t-32 -14q-11 0 -19 2.5t-17 9.5z" glyph-name="icircumflex" horiz-adv-x="514" unicode="î"/>
<glyph d="M347 898v0v-840q0 -30 -15.5 -46t-45.5 -16t-46 16t-16 46v785h-108q-28 0 -43 15t-15 44q0 58 58 58h168h1h1q53 0 60 -46q1 -4 1 -15v-1zM59 1271.5q19 19.5 46 19.5q28 0 47.5 -19t19.5 -48q0 -27 -19.5 -46t-47.5 -19t-46.5 19t-18.5 46q0 28 19 47.5zM342.5 1271.5 q19.5 19.5 46.5 19.5q28 0 47.5 -19.5t19.5 -47.5q0 -27 -19.5 -46t-47.5 -19q-27 0 -46.5 19t-19.5 46q0 28 19.5 47.5z" glyph-name="idieresis" horiz-adv-x="514" unicode="ï"/>
<glyph d="M770 997.5q58 -152.5 58 -362.5v-318q0 -92 -47.5 -168.5t-129 -120.5t-179.5 -44t-179 44t-128 120.5t-47 168.5v311q0 93 47 168.5t128 118.5t179 43q57 0 110 -14.5t96 -41.5q-49 166 -171 259l-88 -69q-21 -24 -41 -24q-10 0 -19 6q-20 14 -20 32q0 15 15 33l85 66 q-23 12 -58 25q-14 5 -27 19t-13 32q0 27 17.5 43t45.5 16q10 0 22 -3q67 -19 118 -51l83 65q21 24 42 24q13 0 23 -9q17 -14 17 -28q0 -13 -17 -32l-84 -66q104 -90 162 -242.5zM705 623q0 62 -31 111.5t-84.5 78t-117.5 28.5t-117 -28.5t-83.5 -78t-30.5 -111.5v-301 q0 -62 30.5 -112t83.5 -78t117 -28t117.5 28.5t84.5 78t31 111.5v301z" glyph-name="eth" horiz-adv-x="945" unicode="ð"/>
<glyph d="M719 936q75 -41 116.5 -118t41.5 -182v-576q0 -31 -16 -47.5t-47 -16.5q-29 0 -44.5 16.5t-15.5 47.5v569q0 111 -59.5 169t-161.5 58q-130 0 -243 -43v-753q0 -31 -15 -47.5t-44 -16.5q-31 0 -47.5 16.5t-16.5 47.5v802q0 17 8 31t22 20q150 64 347 64q100 0 175 -41z M752.5 1294.5q13.5 -13.5 13.5 -31.5q0 -12 -3 -21t-14 -20q-28 -32 -60.5 -48.5t-74.5 -16.5q-32 0 -54 9t-49 27q-23 14 -38 21t-36 7q-22 0 -40.5 -10.5t-41.5 -33.5q-9 -7 -14 -9.5t-13 -2.5q-20 0 -34 13.5t-14 31.5q0 12 4 21t15 20q30 32 61.5 48t70.5 16q33 0 55 -9 t49 -27q23 -14 38 -21t36 -7q43 0 82 45q13 12 27 12q21 0 34.5 -13.5z" glyph-name="ntilde" horiz-adv-x="1027" unicode="ñ"/>
<glyph d="M118 642q0 93 47 169.5t128 121t179 44.5t179.5 -44.5t129 -121t47.5 -169.5v-325q0 -92 -47.5 -168.5t-129 -120.5t-179.5 -44t-179 44t-128 120.5t-47 168.5v325zM241 322q0 -62 30.5 -112t83.5 -78t117 -28t117.5 28.5t84.5 78t31 111.5v316q0 62 -31 111.5t-84.5 78 t-117.5 28.5t-117 -28.5t-83.5 -78t-30.5 -111.5v-316zM332 1326q0 24 18 42.5t40 18.5q16 0 27 -5t20 -23l117 -168q6 -12 6 -26q0 -20 -13 -34.5t-34 -14.5t-38 17l-128 155q-15 16 -15 38z" glyph-name="ograve" horiz-adv-x="945" unicode="ò"/>
<glyph d="M118 642q0 93 47 169.5t128 121t179 44.5t179.5 -44.5t129 -121t47.5 -169.5v-325q0 -92 -47.5 -168.5t-129 -120.5t-179.5 -44t-179 44t-128 120.5t-47 168.5v325zM241 322q0 -62 30.5 -112t83.5 -78t117 -28t117.5 28.5t84.5 78t31 111.5v316q0 62 -31 111.5t-84.5 78 t-117.5 28.5t-117 -28.5t-83.5 -78t-30.5 -111.5v-316zM489 1130q-17 -17 -38 -17t-34 14.5t-13 34.5q0 14 6 26l117 168q9 18 20 23t26 5q23 0 40.5 -18.5t17.5 -42.5q0 -22 -15 -38z" glyph-name="oacute" horiz-adv-x="945" unicode="ó"/>
<glyph d="M118 642q0 93 47 169.5t128 121t179 44.5t179.5 -44.5t129 -121t47.5 -169.5v-325q0 -92 -47.5 -168.5t-129 -120.5t-179.5 -44t-179 44t-128 120.5t-47 168.5v325zM241 322q0 -62 30.5 -112t83.5 -78t117 -28t117.5 28.5t84.5 78t31 111.5v316q0 62 -31 111.5t-84.5 78 t-117.5 28.5t-117 -28.5t-83.5 -78t-30.5 -111.5v-316zM473 1267l-126 -111q-9 -7 -16.5 -9.5t-19.5 -2.5q-21 0 -33.5 13.5t-12.5 31.5q0 14 7 24t24 23l138 120q19 15 39 15q19 0 40 -15l137 -120q18 -13 24.5 -23t6.5 -24q0 -17 -14 -31t-32 -14q-11 0 -19 2.5t-17 9.5z " glyph-name="ocircumflex" horiz-adv-x="945" unicode="ô"/>
<glyph d="M118 642q0 93 47 169.5t128 121t179 44.5t179.5 -44.5t129 -121t47.5 -169.5v-325q0 -92 -47.5 -168.5t-129 -120.5t-179.5 -44t-179 44t-128 120.5t-47 168.5v325zM241 322q0 -62 30.5 -112t83.5 -78t117 -28t117.5 28.5t84.5 78t31 111.5v316q0 62 -31 111.5t-84.5 78 t-117.5 28.5t-117 -28.5t-83.5 -78t-30.5 -111.5v-316zM703.5 1294.5q13.5 -13.5 13.5 -31.5q0 -12 -3 -21t-14 -20q-28 -32 -60.5 -48.5t-74.5 -16.5q-32 0 -54 9t-49 27q-23 14 -38 21t-36 7q-22 0 -40.5 -10.5t-41.5 -33.5q-9 -7 -14 -9.5t-13 -2.5q-20 0 -34 13.5 t-14 31.5q0 12 4 21t15 20q30 32 61.5 48t70.5 16q33 0 55 -9t49 -27q23 -14 38 -21t36 -7q43 0 82 45q13 12 27 12q21 0 34.5 -13.5z" glyph-name="otilde" horiz-adv-x="945" unicode="õ"/>
<glyph d="M118 642q0 93 47 169.5t128 121t179 44.5t179.5 -44.5t129 -121t47.5 -169.5v-325q0 -92 -47.5 -168.5t-129 -120.5t-179.5 -44t-179 44t-128 120.5t-47 168.5v325zM241 322q0 -62 30.5 -112t83.5 -78t117 -28t117.5 28.5t84.5 78t31 111.5v316q0 62 -31 111.5t-84.5 78 t-117.5 28.5t-117 -28.5t-83.5 -78t-30.5 -111.5v-316zM284 1273.5q19 19.5 46 19.5q28 0 47.5 -19t19.5 -48q0 -27 -19.5 -46t-47.5 -19t-46.5 19t-18.5 46q0 28 19 47.5zM567.5 1273.5q19.5 19.5 46.5 19.5q28 0 47.5 -19.5t19.5 -47.5q0 -27 -19.5 -46t-47.5 -19 q-27 0 -46.5 19t-19.5 46q0 28 19.5 47.5z" glyph-name="odieresis" horiz-adv-x="945" unicode="ö"/>
<glyph d="M350.5 838.5q-21.5 21.5 -21.5 51.5q0 31 21.5 53t51.5 22q32 0 53.5 -21.5t21.5 -53.5q0 -30 -22 -51.5t-53 -21.5q-30 0 -51.5 21.5zM46.5 446.5q-16.5 15.5 -16.5 45.5t16.5 45.5t46.5 15.5h617q31 0 47 -15.5t16 -45.5q0 -61 -63 -61h-617q-30 0 -46.5 15.5z M351.5 68.5q-21.5 21.5 -21.5 52.5t21.5 52.5t51.5 21.5q31 0 53 -21.5t22 -52.5t-22 -52.5t-53 -21.5q-30 0 -51.5 21.5z" glyph-name="divide" horiz-adv-x="803" unicode="÷"/>
<glyph d="M805 763.5q23 -57.5 23 -121.5v-325q0 -92 -47.5 -168.5t-129 -120.5t-179.5 -44q-103 0 -188 49l-32 -59q-22 -36 -50 -32q-22 1 -34 12t-12 27q0 15 9 30l44 81q-43 44 -67 102t-24 123v325q0 93 47 169.5t128 121t179 44.5q103 0 191 -51l33 60q21 38 51 35 q22 -1 34 -12.5t12 -29.5q0 -14 -9 -31l-45 -82q43 -45 66 -102.5zM273 209l332 610q-59 37 -133 37q-64 0 -117 -28.5t-83.5 -78t-30.5 -111.5v-316q0 -64 32 -113zM705 638q0 59 -30 110l-333 -609q59 -35 130 -35q64 0 117.5 28.5t84.5 78t31 111.5v316z" glyph-name="oslash" horiz-adv-x="945" unicode="ø"/>
<glyph d="M318.5 26.5q-78.5 42.5 -123 118.5t-44.5 171v585q0 30 16 46.5t46 16.5q29 0 44.5 -16t15.5 -47v-583q0 -62 31 -111t84.5 -76t118.5 -27q71 0 123.5 11.5t107.5 32.5v753q0 31 15 47t43 16q31 0 47.5 -16t16.5 -47v-802q0 -18 -7.5 -31.5t-21.5 -19.5 q-150 -64 -335 -64q-99 0 -177.5 42.5zM365 1326q0 24 18 42.5t40 18.5q16 0 27 -5t20 -23l117 -168q6 -12 6 -26q0 -20 -13 -34.5t-34 -14.5t-38 17l-128 155q-15 16 -15 38z" glyph-name="ugrave" horiz-adv-x="1027" unicode="ù"/>
<glyph d="M318.5 26.5q-78.5 42.5 -123 118.5t-44.5 171v585q0 30 16 46.5t46 16.5q29 0 44.5 -16t15.5 -47v-583q0 -62 31 -111t84.5 -76t118.5 -27q71 0 123.5 11.5t107.5 32.5v753q0 31 15 47t43 16q31 0 47.5 -16t16.5 -47v-802q0 -18 -7.5 -31.5t-21.5 -19.5 q-150 -64 -335 -64q-99 0 -177.5 42.5zM522 1130q-17 -17 -38 -17t-34 14.5t-13 34.5q0 14 6 26l117 168q9 18 20 23t26 5q23 0 40.5 -18.5t17.5 -42.5q0 -22 -15 -38z" glyph-name="uacute" horiz-adv-x="1027" unicode="ú"/>
<glyph d="M318.5 26.5q-78.5 42.5 -123 118.5t-44.5 171v585q0 30 16 46.5t46 16.5q29 0 44.5 -16t15.5 -47v-583q0 -62 31 -111t84.5 -76t118.5 -27q71 0 123.5 11.5t107.5 32.5v753q0 31 15 47t43 16q31 0 47.5 -16t16.5 -47v-802q0 -18 -7.5 -31.5t-21.5 -19.5 q-150 -64 -335 -64q-99 0 -177.5 42.5zM506 1267l-126 -111q-9 -7 -16.5 -9.5t-19.5 -2.5q-21 0 -33.5 13.5t-12.5 31.5q0 14 7 24t24 23l138 120q19 15 39 15q19 0 40 -15l137 -120q18 -13 24.5 -23t6.5 -24q0 -17 -14 -31t-32 -14q-11 0 -19 2.5t-17 9.5z" glyph-name="ucircumflex" horiz-adv-x="1027" unicode="û"/>
<glyph d="M318.5 26.5q-78.5 42.5 -123 118.5t-44.5 171v585q0 30 16 46.5t46 16.5q29 0 44.5 -16t15.5 -47v-583q0 -62 31 -111t84.5 -76t118.5 -27q71 0 123.5 11.5t107.5 32.5v753q0 31 15 47t43 16q31 0 47.5 -16t16.5 -47v-802q0 -18 -7.5 -31.5t-21.5 -19.5 q-150 -64 -335 -64q-99 0 -177.5 42.5zM317 1273.5q19 19.5 46 19.5q28 0 47.5 -19t19.5 -48q0 -27 -19.5 -46t-47.5 -19t-46.5 19t-18.5 46q0 28 19 47.5zM600.5 1273.5q19.5 19.5 46.5 19.5q28 0 47.5 -19.5t19.5 -47.5q0 -27 -19.5 -46t-47.5 -19q-27 0 -46.5 19 t-19.5 46q0 28 19.5 47.5z" glyph-name="udieresis" horiz-adv-x="1027" unicode="ü"/>
<glyph d="M843.5 948q16.5 -16 16.5 -47v-856q0 -179 -76 -276.5t-212 -97.5q-100 0 -187 20q-61 11 -61 59q0 28 13.5 43t39.5 15q8 0 12 -1l36 -6q40 -7 68 -10t64 -3q95 0 142 64.5t47 202.5v5q-115 -36 -250 -36q-99 0 -177.5 42.5t-123 118.5t-44.5 171v545q0 30 16 46.5 t46 16.5q29 0 44.5 -16t15.5 -47v-543q0 -62 31 -110.5t84.5 -75.5t118.5 -27q72 0 125.5 11.5t105.5 31.5v713q0 31 15 47t43 16q31 0 47.5 -16zM522 1130q-17 -17 -38 -17t-34 14.5t-13 34.5q0 14 6 26l117 168q9 18 20 23t26 5q23 0 40.5 -18.5t17.5 -42.5q0 -22 -15 -38 z" glyph-name="yacute" horiz-adv-x="1027" unicode="ý"/>
<glyph d="M718 933q79 -44 124 -120.5t45 -169.5v-325q0 -90 -46.5 -167t-128 -122t-181.5 -45q-77 0 -131 12t-106 30l-2 -4l8 -33v-260q0 -62 -62 -62q-61 0 -61 62v1555q0 31 15.5 47t45.5 16q62 0 62 -63v-340q126 33 242 33q97 0 176 -44zM764 638q0 62 -31 111.5t-84.5 78 t-118.5 28.5q-64 0 -111.5 -9.5t-96.5 -25.5l-22 -7v-667q6 -2 38 -13.5t84 -20.5t108 -9q65 0 118.5 28t84.5 78t31 112v316z" glyph-name="thorn" horiz-adv-x="1004" unicode="þ"/>
<glyph d="M347 898v0v-840q0 -30 -15.5 -46t-45.5 -16t-46 16t-16 46v785h-108q-28 0 -43 15t-15 44q0 58 58 58h168h1h1q53 0 60 -46q1 -4 1 -15v-1z" glyph-name="dotlessi" horiz-adv-x="514" unicode="ı"/>
<glyph d="M347 898v0v-942q0 -138 -58 -213t-177 -75q-37 0 -104 14q-29 6 -43 18t-14 37q0 30 15.5 48t44.5 14q67 -14 91 -14q66 0 94 43.5t28 133.5v881h-108q-28 0 -43 15t-15 44q0 58 58 58h168h1h1q53 0 60 -46q1 -4 1 -15v-1z" glyph-name="uni0237" horiz-adv-x="514" unicode="ȷ"/>
<glyph d="M-458 1324q0 24 18 42.5t40 18.5q16 0 27 -5t20 -23l117 -168q6 -12 6 -26q0 -20 -13 -34.5t-34 -14.5t-38 17l-128 155q-15 16 -15 38z" glyph-name="gravecomb" unicode="̀"/>
<glyph d="M-289 1131q-17 -17 -38 -17t-34 14.5t-13 34.5q0 14 6 26l117 168q9 18 20 23t26 5q23 0 40.5 -18.5t17.5 -42.5q0 -22 -15 -38z" glyph-name="acutecomb" unicode="́"/>
<glyph d="M-407 1267l-126 -111q-9 -7 -16.5 -9.5t-19.5 -2.5q-21 0 -33.5 13.5t-12.5 31.5q0 14 7 24t24 23l138 120q19 15 39 15q19 0 40 -15l137 -120q18 -13 24.5 -23t6.5 -24q0 -17 -14 -31t-32 -14q-11 0 -19 2.5t-17 9.5z" glyph-name="uni0302" unicode="̂"/>
<glyph d="M-100.5 1292.5q13.5 -13.5 13.5 -31.5q0 -12 -3 -21t-14 -20q-28 -32 -60.5 -48.5t-74.5 -16.5q-32 0 -54 9t-49 27q-23 14 -38 21t-36 7q-22 0 -40.5 -10.5t-41.5 -33.5q-9 -7 -14 -9.5t-13 -2.5q-20 0 -34 13.5t-14 31.5q0 12 4 21t15 20q30 32 61.5 48t70.5 16 q33 0 55 -9t49 -27q23 -14 38 -21t36 -7q43 0 82 45q13 12 27 12q21 0 34.5 -13.5z" glyph-name="tildecomb" unicode="̃"/>
<glyph d="M-248 1256q50 0 50 -46q0 -51 -50 -51h-308q-49 0 -49 50q0 47 49 47h308z" glyph-name="uni0304" unicode="̄"/>
<glyph d="M-313 1170.5q-23 22.5 -23 54.5t23 55t55 23q33 0 55.5 -23t22.5 -55t-22.5 -54.5t-55.5 -22.5q-32 0 -55 22.5z" glyph-name="uni0307" unicode="̇"/>
<glyph d="M-583 1273.5q19 19.5 46 19.5q28 0 47.5 -19t19.5 -48q0 -27 -19.5 -46t-47.5 -19t-46.5 19t-18.5 46q0 28 19 47.5zM-299.5 1273.5q19.5 19.5 46.5 19.5q28 0 47.5 -19.5t19.5 -47.5q0 -27 -19.5 -46t-47.5 -19q-27 0 -46.5 19t-19.5 46q0 28 19.5 47.5z" glyph-name="uni0308" unicode="̈"/>
<glyph d="M-353.5 1132q-29.5 18 -47 48t-17.5 65t17.5 65t47 47t64.5 17t65 -17t47.5 -47t17.5 -65t-17.5 -65t-47.5 -48t-65 -18t-64.5 18zM-242.5 1198.5q19.5 19.5 19.5 46.5q0 26 -19.5 45.5t-45.5 19.5q-27 0 -46 -19.5t-19 -45.5q0 -28 19 -47t46 -19q26 0 45.5 19.5z" glyph-name="uni030A" unicode="̊"/>
<glyph d="M-221 5h68l-19 -59q72 -8 112.5 -42t40.5 -91q0 -56 -41 -97.5t-117 -64.5l-33 -10q-10 -2 -13 -2q-17 0 -28.5 12.5t-11.5 31.5q-1 10 5 19t20 13l25 8q53 16 81 36t28 51q0 34 -23 50t-79 23q-34 2 -34 32q0 8 1 12z" glyph-name="uni0327" unicode="̧"/>
<glyph d="M861 947.5q16 -16.5 16 -46.5v-775q0 -35 -11.5 -57.5t-45.5 -34.5q-44 -17 -122.5 -33.5t-164.5 -16.5q-79 0 -141.5 36t-101.5 102v-406q0 -30 -15 -46t-44 -16q-31 0 -47.5 17t-16.5 48v1182q0 31 16.5 47t47.5 16q29 0 44 -16t15 -47v-575q0 -64 30.5 -115t83 -79.5 t116.5 -28.5q67 0 118 11t96 26l20 6v755q0 31 15.5 47t44.5 16q31 0 47 -16.5z" glyph-name="uni03BC" horiz-adv-x="1043" unicode="μ"/>
<glyph d="M150 37q-19 -41 -48 -38q-25 1 -39 13.5t-14 32.5q0 12 8 30l561 1201q8 16 21 25.5t29 9.5q26 0 38.5 -12t12.5 -32q0 -19 -9 -40z" glyph-name="fraction" horiz-adv-x="770" unicode="⁄"/>
<glyph d="M189 -194.5q-12 11.5 -12 33.5v521l-53 -32q-3 -3 -8 -4t-11 -1q-18 0 -29.5 13.5t-11.5 30.5q1 12 7 22t16 16l106 66q8 5 14 7t16 2q21 0 31.5 -12t10.5 -31v-598q0 -22 -11 -33.5t-31 -11.5q-22 0 -34 11.5z" glyph-name="uni2081" horiz-adv-x="460" unicode="₁"/>
<glyph d="M65 -190.5q-13 13.5 -13 32.5q0 16 14 32l248 281q32 35 48 67t16 68v8q0 41 -29.5 70.5t-79.5 29.5q-45 0 -73 -16.5t-52 -42.5q-2 -1 -10 -6.5t-18 -5.5q-20 0 -33.5 12.5t-13.5 28.5q0 14 5 22.5t16 16.5q71 79 186 79q54 0 97.5 -24.5t68 -66.5t24.5 -92v-15 q0 -47 -20.5 -92.5t-63.5 -92.5l-195 -218h256q22 0 33.5 -11t11.5 -32q0 -22 -11.5 -34t-33.5 -12h-346q-19 0 -32 13.5z" glyph-name="uni2082" horiz-adv-x="544" unicode="₂"/>
<glyph d="M428 185.5q54 -51.5 54 -141.5v-38q0 -61 -30 -110.5t-81.5 -78.5t-114.5 -29q-51 0 -87 16t-70 41q-22 10 -32 21.5t-10 29.5q0 16 11 30t32 14q12 0 31 -13q5 -3 25 -18.5t47 -25t59 -9.5q56 0 93.5 39t37.5 96v35q0 56 -37.5 88t-96.5 32h-38q-17 0 -29 11t-13 29 q0 24 13 34l147 153h-223q-22 0 -34 11t-12 30q0 22 12 34t34 12h298q22 0 34 -11.5t12 -30.5q0 -12 -6 -23t-16 -18l-151 -157q87 -1 141 -52.5z" glyph-name="uni2083" horiz-adv-x="551" unicode="₃"/>
<glyph d="M65 9.5q-13 13.5 -13 32.5q0 16 14 32l248 281q32 35 48 67t16 68v8q0 41 -29.5 70.5t-79.5 29.5q-45 0 -73 -16.5t-52 -42.5q-2 -1 -10 -6.5t-18 -5.5q-20 0 -33.5 12.5t-13.5 28.5q0 14 5 22.5t16 16.5q71 79 186 79q54 0 97.5 -24.5t68 -66.5t24.5 -92v-15 q0 -47 -20.5 -92.5t-63.5 -92.5l-195 -218h256q22 0 33.5 -11t11.5 -32q0 -22 -11.5 -34t-33.5 -12h-346q-19 0 -32 13.5z" glyph-name="two.dnom" horiz-adv-x="544"/>
<glyph d="M344.5 8q-11.5 12 -11.5 33v112h-247q-21 0 -33.5 13t-12.5 37q0 12 4 22l190 426q10 28 42 28q21 0 33 -9.5t12 -27.5q0 -10 -5 -25l-172 -375h189v87q0 22 11.5 33.5t33.5 11.5q44 0 44 -45v-87h45q21 0 32.5 -11t11.5 -33t-11.5 -33.5t-32.5 -11.5h-45v-112 q0 -21 -11.5 -33t-32.5 -12q-22 0 -33.5 12z" glyph-name="four.dnom" horiz-adv-x="544"/>
<glyph d="M107 1084q0 66 28 119t77 83.5t109 30.5q61 0 110 -30.5t77.5 -83.5t28.5 -119v-234q0 -65 -28.5 -118t-77.5 -83t-110 -30q-60 0 -109 30t-77 83t-28 118v234zM196 855q0 -64 34.5 -105.5t90.5 -41.5q57 0 92.5 41.5t35.5 105.5v226q0 66 -35.5 106.5t-92.5 40.5 q-56 0 -90.5 -40.5t-34.5 -106.5v-226z" glyph-name="zero.numr" horiz-adv-x="644"/>
<glyph d="M189 636.5q-12 11.5 -12 33.5v521l-53 -32q-3 -3 -8 -4t-11 -1q-18 0 -29.5 13.5t-11.5 30.5q1 12 7 22t16 16l106 66q8 5 14 7t16 2q21 0 31.5 -12t10.5 -31v-598q0 -22 -11 -33.5t-31 -11.5q-22 0 -34 11.5z" glyph-name="one.numr" horiz-adv-x="460"/>
<glyph d="M428 1016.5q54 -51.5 54 -141.5v-38q0 -61 -30 -110.5t-81.5 -78.5t-114.5 -29q-51 0 -87 16t-70 41q-22 10 -32 21.5t-10 29.5q0 16 11 30t32 14q12 0 31 -13q5 -3 25 -18.5t47 -25t59 -9.5q56 0 93.5 39t37.5 96v35q0 56 -37.5 88t-96.5 32h-38q-17 0 -29 11t-13 29 q0 24 13 34l147 153h-223q-22 0 -34 11t-12 30q0 22 12 34t34 12h298q22 0 34 -11.5t12 -30.5q0 -12 -6 -23t-16 -18l-151 -157q87 -1 141 -52.5z" glyph-name="three.numr" horiz-adv-x="551"/>
<glyph d="M-583 1589.5q19 19.5 46 19.5q28 0 47.5 -19t19.5 -48q0 -27 -19.5 -46t-47.5 -19t-46.5 19t-18.5 46q0 28 19 47.5zM-299.5 1589.5q19.5 19.5 46.5 19.5q28 0 47.5 -19.5t19.5 -47.5q0 -27 -19.5 -46t-47.5 -19q-27 0 -46.5 19t-19.5 46q0 28 19.5 47.5z" glyph-name="uni0308.case"/>
<glyph d="M-443 1631q0 24 18 42.5t40 18.5q16 0 27 -5t20 -23l117 -168q6 -12 6 -26q0 -20 -13 -34.5t-34 -14.5t-38 17l-128 155q-15 16 -15 38z" glyph-name="gravecomb.case"/>
<glyph d="M-289 1441q-17 -17 -38 -17t-34 14.5t-13 34.5q0 14 6 26l117 168q9 18 20 23t26 5q23 0 40.5 -18.5t17.5 -42.5q0 -22 -15 -38z" glyph-name="acutecomb.case"/>
<glyph d="M-406 1544l-127 -111q-9 -6 -16.5 -8.5t-18.5 -2.5q-18 0 -32.5 14.5t-14.5 29.5q0 14 7.5 24.5t24.5 23.5l138 120q19 15 39 15q18 0 39 -15l137 -120q18 -13 25 -23t7 -25q0 -14 -15.5 -29t-30.5 -15q-12 0 -19.5 2t-16.5 9z" glyph-name="uni0302.case"/>
<glyph d="M-353.5 1485q-29.5 18 -47 48t-17.5 65t17.5 65t47 47t64.5 17t65 -17t47.5 -47t17.5 -65t-17.5 -65t-47.5 -48t-65 -18t-64.5 18zM-242.5 1551.5q19.5 19.5 19.5 46.5q0 26 -19.5 45.5t-45.5 19.5q-27 0 -46 -19.5t-19 -45.5q0 -28 19 -47t46 -19q26 0 45.5 19.5z" glyph-name="uni030A.case"/>
<glyph d="M-100.5 1619.5q13.5 -13.5 13.5 -31.5q0 -12 -3 -21t-14 -20q-28 -32 -60.5 -48.5t-74.5 -16.5q-32 0 -54 9t-49 27q-23 14 -38 21t-36 7q-22 0 -40.5 -10.5t-41.5 -33.5q-9 -7 -14 -9.5t-13 -2.5q-20 0 -34 13.5t-14 31.5q0 12 4 21t15 20q30 32 61.5 48t70.5 16 q33 0 55 -9t49 -27q23 -14 38 -21t36 -7q43 0 82 45q13 12 27 12q21 0 34.5 -13.5z" glyph-name="tildecomb.case"/>
</font>
</defs>
</svg>
